<!DOCTYPE svg PUBLIC "-//W3C//DTD SVG 1.1//EN"
        "http://www.w3.org/Graphics/SVG/1.1/DTD/svg11.dtd">
<svg xmlns="http://www.w3.org/2000/svg"><metadata>This SVG WebFont was generated by YouWorkForThem.
    Copyright (c) , 2013. All rights reserved.</metadata><defs><font horiz-adv-x="1388" id="ywftsvg"><font-face ascent="1550" bbox="-371 -626 2400 2898" cap-height="1376" descent="-498" font-family="" font-stretch="normal" font-weight="700" panose-1="2 0 8 3 4 0 0 2 0 4" underline-position="0" underline-thickness="0" unicode-range="U+0020-FB02" units-per-em="2048" x-height="973"/><missing-glyph horiz-adv-x="468"/><glyph glyph-name=".notdef" horiz-adv-x="468"/><glyph glyph-name="glyph1" horiz-adv-x="0"/><glyph glyph-name="glyph2" horiz-adv-x="681"/><glyph glyph-name="space" horiz-adv-x="468" unicode=" "/><glyph d="M440 477h-256l2 55l-8 605q0 98 -4 221h277l-2 -174v-76l-9 -600v-31zM154 142q0 67 47 114t112.5 47t113.5 -47t48 -114t-48 -112.5t-113.5 -45.5t-112.5 45.5t-47 112.5z" glyph-name="exclam" horiz-adv-x="628" unicode="!"/><glyph d="M365 1483l-41 -549h-183l-41 549h265zM760 1483l-41 -549h-182l-41 549h264z" glyph-name="quotedbl" horiz-adv-x="858" unicode="&quot;"/><glyph d="M61 375v184h224l55 264h-201v181h230l63 339h186l-63 -339h219l66 339h188l-65 -339h186v-181h-215l-53 -264h194v-184h-225l-72 -357h-186l67 357h-219l-67 -357h-189l68 357h-191zM471 559h221l53 264h-221z" glyph-name="numbersign" horiz-adv-x="1200" unicode="#"/><glyph d="M500 1002q0 -50 29.5 -87.5t59 -59t94.5 -61.5t94.5 -61.5t106.5 -93.5t77 -212t-81 -233.5t-225 -127.5v-158h-180v139q-164 6 -291 45l15 240q113 -88 297 -88q80 0 124 37.5t44 107.5q0 96 -190 205t-223.5 199t-33.5 161q0 129 69.5 217.5t198.5 122.5v156h179v-137 q129 -4 235 -33v-229q-96 70 -248 69q-70 0 -110.5 -34t-40.5 -84z" glyph-name="dollar" horiz-adv-x="1122" unicode="$"/><glyph d="M469 0h-221l999 1374h223zM276 1032q0 -76 41 -124t104.5 -48t104.5 49t41 123t-42 123t-104 49t-103.5 -48t-41.5 -124zM82 1032.5q0 149.5 99.5 253t241.5 103.5t240.5 -101.5t98.5 -252.5t-99.5 -253t-240.5 -102t-240.5 101.5t-99.5 251zM1149 335q0 -75 40 -123 t105 -48t106.5 49t41.5 123t-42 122t-105.5 48t-104.5 -48t-41 -123zM956 337q0 151 98.5 253t239.5 102t240.5 -102.5t99.5 -252t-99 -251.5t-240.5 -102t-240 101t-98.5 252z" glyph-name="percent" horiz-adv-x="1716" unicode="%"/><glyph d="M1411 231v-243q-162 0 -256 34.5t-203 133.5q-184 -174 -413 -174q-190 0 -313.5 111.5t-123.5 285.5q0 213 281 377q-135 131 -135 275t102.5 233.5t250.5 89.5t245.5 -88t97.5 -219q0 -86 -50 -158t-151 -148q106 -98 238 -243q142 152 197 258h264 q-158 -229 -314 -410q52 -56 83.5 -71t46 -23t42 -12t43.5 -6.5t68 -2.5zM582 195q100 0 227 122q-143 170 -291 306q-158 -98 -158 -232q0 -82 61 -139t161 -57zM473 1049q0 -78 121 -181q143 76 143 179q0 53 -35.5 91t-93.5 38t-96.5 -36t-38.5 -91z" glyph-name="ampersand" horiz-adv-x="1499" unicode="&amp;"/><glyph d="M322 932h-181q-6 53 -19 253.5t-22 295.5h265q-2 -14 -43 -549z" glyph-name="quotesingle" horiz-adv-x="464" unicode="'"/><glyph d="M92 573q0 315 121 573.5t348 428.5q10 -6 55.5 -91t53.5 -91q-315 -307 -315 -821t313 -824l-107 -178q-229 172 -349 430t-120 573z" glyph-name="parenleft" horiz-adv-x="749" unicode="("/><glyph d="M391 572q0 512 -315 821q8 6 53 91t53 91q227 -170 349 -427.5t122 -573.5t-120 -574t-349 -430l-108 178q315 312 315 824z" glyph-name="parenright" horiz-adv-x="749" unicode=")"/><glyph d="M106 963v204q92 -18 291 -32q-162 219 -176 233q114 63 176 105q12 -37 117 -273q55 115 115 273q119 -70 180 -105q-43 -43 -180 -233q233 18 293 34v-208q-145 23 -291 36q45 -66 180 -237q-29 -16 -90.5 -49t-89.5 -49q-10 29 -51 123t-64 147q-76 -154 -119 -273 q-119 70 -180 105q39 45 180 233q-185 -14 -291 -34z" glyph-name="asterisk" horiz-adv-x="1050" unicode="*"/><glyph d="M438 428h-342v203h342v358h234v-358h342v-203h-342v-358h-234v358z" glyph-name="plus" horiz-adv-x="1112" unicode="+"/><glyph d="M188 129q0 90 -16 158q121 20 268 47q14 -60 14 -168t-54 -250.5t-138 -253.5l-172 74q98 201 98 393z" glyph-name="comma" horiz-adv-x="561" unicode=","/><glyph d="M78 616h579v-237h-579v237z" glyph-name="hyphen" horiz-adv-x="737" unicode="-"/><glyph d="M117 147.5q0 71.5 52 124t123 52.5t122 -52t51 -122t-52.5 -123.5t-122.5 -53.5t-121.5 51.5t-51.5 123z" glyph-name="period" horiz-adv-x="561" unicode="."/><glyph d="M707 1436q-432 -1452 -449 -1510h-246q288 956 451 1510h244z" glyph-name="slash" horiz-adv-x="718" unicode="/"/><glyph d="M1075 680q0 -299 -129.5 -497.5t-365.5 -198.5t-363 199.5t-127 499.5t129 497.5t363 197.5q160 0 326.5 -144t166.5 -554zM371 679q0 -228 54 -352t156.5 -124t158 125t55.5 351t-55.5 352t-158 126t-156.5 -125t-54 -353z" glyph-name="zero" horiz-adv-x="1167" unicode="0"/><glyph d="M758 1120v-909q0 -164 4 -211h-277q4 84 4 213v852q-164 -66 -270 -115q-33 190 -39 217q254 100 453 199h127q-2 -56 -2 -246z" glyph-name="one" horiz-adv-x="1048" unicode="1"/><glyph d="M137 0v152q238 211 408 446q70 96 101.5 161.5t31.5 154.5t-65 151.5t-161 62.5t-173.5 -29.5t-122.5 -76.5v276q123 78 342 78t342 -116.5t123 -316.5t-183 -427q-94 -119 -256 -283h238q135 0 250 11v-244h-875z" glyph-name="two" horiz-adv-x="1105" unicode="2"/><glyph d="M500 1374q186 0 300.5 -95t114.5 -255q0 -227 -235 -309q274 -84 274 -344q0 -178 -131 -283.5t-356 -105.5q-170 0 -297 51v239q106 -66 240 -66t189.5 67t55.5 148t-60 127t-163 46q-43 0 -94 -6v217q28 -4 98 -4t137.5 51t67.5 123t-50 123t-172 51t-241 -76v238 q136 63 322 63z" glyph-name="three" horiz-adv-x="1118" unicode="3"/><glyph d="M850 1368v-819q162 0 221 4v-199q-49 2 -221 2v-194q0 -82 8 -162h-270q6 53 6 160v196h-553v125l713 887h96zM594 549q0 264 2 395q-57 -76 -162.5 -216t-134.5 -179h295z" glyph-name="four" horiz-adv-x="1105" unicode="4"/><glyph d="M455 -20q-174 0 -322 59v248q115 -74 249 -74t210 58.5t76 154.5t-76 156.5t-212 60.5t-206 -22q2 27 26 258t40 483q102 -4 176 -4h301q23 0 188 6v-240q-111 4 -182 4h-272q-4 -33 -14.5 -145.5t-14.5 -144.5q45 10 98 10q199 0 320 -116t121 -306t-145.5 -318 t-360.5 -128z" glyph-name="five" horiz-adv-x="1105" unicode="5"/><glyph d="M1047 422q0 -184 -150.5 -313t-340.5 -129t-331 135t-141 317q0 473 362 803q33 31 82.5 72t77.5 65l365 -2q-164 -94 -342 -274.5t-199 -266.5q115 49 193 50q195 0 309.5 -136.5t114.5 -320.5zM338 434q0 -94 64.5 -164.5t164.5 -70.5t158.5 68.5t58.5 159.5 t-65.5 161.5t-157.5 70.5t-157.5 -65.5t-65.5 -159.5z" glyph-name="six" horiz-adv-x="1122" unicode="6"/><glyph d="M281 1120q-109 0 -177 -6q-4 166 -10 248q51 -4 209 -4h533q47 0 114.5 1t87.5 1q-61 -127 -90 -193l-430 -970q-10 -23 -43 -97.5t-43 -99.5h-291q23 37 138 265t389 855h-387z" glyph-name="seven" horiz-adv-x="1087" unicode="7"/><glyph d="M367 404q0 -82 56 -137.5t146 -55.5t147.5 55.5t57.5 137.5t-65.5 138t-165.5 76q-76 -18 -126 -75t-50 -139zM395 993q0 -72 56.5 -122t138.5 -62q63 16 107 67.5t44 119.5t-48 117.5t-125 49.5t-125 -49t-48 -121zM145 1010q0 160 123 263t305 103t300 -103.5 t118 -248.5q0 -180 -194 -303q111 -49 174 -138t63 -202q0 -174 -134 -284.5t-332 -110.5t-332 107.5t-134 277.5q0 111 63.5 203t176.5 141q-197 102 -197 295z" glyph-name="eight" horiz-adv-x="1128" unicode="8"/><glyph d="M498 492q-195 0 -309.5 136t-114.5 320t150 313.5t340 129.5t331 -135.5t141 -317.5q0 -473 -362 -803q-33 -31 -82 -71.5t-78 -65.5l-364 2q164 94 342 274.5t198 266.5q-115 -49 -192 -49zM782 936q0 94 -64.5 164.5t-164.5 70.5t-158.5 -67.5t-58.5 -159.5 t65.5 -162.5t157.5 -70.5t157.5 65.5t65.5 159.5z" glyph-name="nine" horiz-adv-x="1118" unicode="9"/><glyph d="M121 132q0 69 48 117t117 48t117 -48t48 -117t-48.5 -117t-116.5 -48t-116.5 48t-48.5 117zM121 794.5q0 69.5 48 118t117 48.5t117 -48.5t48 -118t-48.5 -116.5t-116.5 -47t-116.5 47t-48.5 116.5z" glyph-name="colon" horiz-adv-x="571" unicode=":"/><glyph d="M188 129q0 90 -16 158q121 20 268 47q14 -60 14 -168t-54 -250.5t-138 -253.5l-172 74q98 201 98 393zM127 794q0 69 48 118t117 49t117 -49.5t48 -117.5t-48.5 -115.5t-116.5 -47.5t-116.5 47t-48.5 116z" glyph-name="semicolon" horiz-adv-x="606" unicode=";"/><glyph d="M420 528l588 -272v-246q-336 178 -910 473v90q242 123 910 476v-244q-389 -180 -588 -277z" glyph-name="less" horiz-adv-x="1134" unicode="&lt;"/><glyph d="M1016 633h-918v203h918v-203zM1016 219h-918v205h918v-205z" glyph-name="equal" horiz-adv-x="1112" unicode="="/><glyph d="M713 541q-414 213 -531 274v244q702 -391 840 -473v-92q-702 -391 -840 -474v246q78 41 167 88t196.5 101.5t167.5 85.5z" glyph-name="greater" horiz-adv-x="1134" unicode="&gt;"/><glyph d="M549 426h-252q2 117 14.5 175.5t45.5 96.5t88 100t89.5 106.5t34.5 70.5q0 84 -57.5 126t-121.5 42t-130.5 -36t-112.5 -85v252q109 100 284 100t293 -84t118 -262q0 -63 -31 -122.5t-58.5 -88.5t-96.5 -91t-88 -120.5t-19 -179.5zM272 142q0 64 48.5 112.5t114 48.5 t113.5 -47t48 -112.5t-48 -111.5t-115 -47t-114 46t-47 111z" glyph-name="question" horiz-adv-x="933" unicode="?"/><glyph d="M1208 340q0 -104 82 -104q94 0 149.5 85t55.5 236q0 248 -157.5 396.5t-427.5 148.5t-449.5 -190.5t-179.5 -463t171 -443.5t427 -171q170 0 276 41l1 -21l-1 -153q-139 -29 -276 -29q-336 0 -566.5 222t-230.5 562t242.5 575t580.5 235t564.5 -186.5t226.5 -501.5 q0 -223 -115 -369t-307 -146q-94 0 -164 45.5t-74 129.5q-96 -160 -260 -160q-121 0 -197.5 95t-76.5 252t105.5 291t271.5 134q123 0 178 -88q10 53 10 76l211 -15q-8 -79 -18 -137q-52 -282 -52 -346zM918 668q-80 0 -136.5 -66t-56.5 -152t36 -131t97 -45q125 1 160 105 l18 233q-16 27 -55 41.5t-63 14.5z" glyph-name="at" horiz-adv-x="1779" unicode="@"/><glyph d="M414 307l-123 -307h-279q80 158 172 367l453 1030h94l477 -1061q59 -135 168 -336h-319q-8 23 -123 307h-520zM848 512l-178 451l-174 -451h352z" glyph-name="A" unicode="A"/><glyph d="M584 0h-432q6 123 6 362v611q0 330 -4 403h415q184 0 312.5 -89t128.5 -247q0 -96 -49.5 -170.5t-131.5 -107.5q119 -37 191 -130t72 -224q0 -188 -145.5 -298t-362.5 -110zM809 411q0 101 -61.5 162.5t-165.5 61.5h-146v-440h133q113 0 176.5 57.5t63.5 158.5zM436 819 h119q82 0 133 50.5t51 133.5t-51 134t-143 51h-109v-369z" glyph-name="B" horiz-adv-x="1191" unicode="B"/><glyph d="M836 217q196 0 331 86v-274q-141 -51 -338 -52q-330 0 -533.5 199t-203.5 508t208 513t529 204q158 0 330 -58v-282q-121 96 -321 96t-331.5 -136t-131.5 -336t132.5 -334t328.5 -134z" glyph-name="C" horiz-adv-x="1280" unicode="C"/><glyph d="M621 0h-469q6 129 6 371v665q0 229 -6 340h471q297 0 494.5 -191.5t197.5 -493.5t-203.5 -496.5t-490.5 -194.5zM436 1147v-918h156q199 0 320.5 130t121.5 331t-125 329t-319 128h-154z" glyph-name="D" horiz-adv-x="1411" unicode="D"/><glyph d="M434 823h127q236 0 320 4v-233q-84 4 -320 4h-127v-369h176q240 0 320 4v-237q-80 4 -316 4h-462q6 66 6 346v682q0 217 -6 348h493q188 0 291 6l-43 -239q-78 4 -354 4h-105v-324z" glyph-name="E" horiz-adv-x="1050" unicode="E"/><glyph d="M158 360v656q0 221 -6 360h446q250 0 340 6l-43 -239q-63 4 -324 4h-135v-363h127q213 0 295 4v-237q-61 4 -295 4h-127v-199q0 -256 4 -356h-288q6 139 6 360z" glyph-name="F" horiz-adv-x="1013" unicode="F"/><glyph d="M1233 297v-248q-186 -74 -397 -74q-328 0 -536 196t-208 511t209 516t549 201q178 0 340 -53v-269q-158 84 -330 84q-223 0 -354 -133t-131 -336t128 -342t331 -139q86 0 137 27v139q0 180 -6 264h274q-6 -143 -6 -344z" glyph-name="G" unicode="G"/><glyph d="M1040 831v201q0 213 -6 344h287q-6 -199 -6 -356v-797q0 -20 6 -223h-287q6 104 6 293v315h-606v-315q0 -213 6 -293h-286q4 78 4 301v719q0 276 -4 356h286q-6 -104 -6 -418v-127h606z" glyph-name="H" horiz-adv-x="1474" unicode="H"/><glyph d="M440 991v-626q0 -272 4 -365h-286q6 129 6 365v626q0 244 -6 385h286q-4 -68 -4 -385z" glyph-name="I" horiz-adv-x="602" unicode="I"/><glyph d="M463 1020v-993q0 -227 -118 -364.5t-331 -137.5q-100 0 -198 24v250q72 -41 169 -41t148 61.5t51 168.5v1032q0 266 -6 356h289q-4 -131 -4 -356z" glyph-name="J" horiz-adv-x="622" unicode="J"/><glyph d="M436 348q0 -244 4 -348h-288q4 88 4 348v680q0 254 -4 348h288q-4 -96 -4 -346v-289l305 400q49 63 166 235h312q-25 -29 -70 -92t-68 -90l-374 -475l399 -483q90 -111 203 -236h-375q-82 121 -131 180l-367 451v-283z" glyph-name="K" horiz-adv-x="1323" unicode="K"/><glyph d="M434 233h213q184 0 320 5v-242q-84 4 -326 4h-489q6 229 6 371v633q0 229 -6 372h286q-4 -168 -4 -196v-947z" glyph-name="L" horiz-adv-x="1021" unicode="L"/><glyph d="M1280 868l-391 -700h-64l-399 700l-35 -563q-4 -68 -7 -175t-5 -130h-287q4 53 14.5 170t14.5 180l72 1032h210l457 -823l455 823h205l59 -1054q8 -182 25 -328h-279q-4 158 -12 301z" glyph-name="M" horiz-adv-x="1699" unicode="M"/><glyph d="M422 287q0 -170 6 -287h-276q4 80 4 293v731q0 240 -4 373h98l797 -875v502q0 227 -7 352h283q-8 -166 -8 -346v-737q0 -213 4 -305h-100l-797 882v-583z" glyph-name="N" horiz-adv-x="1472" unicode="N"/><glyph d="M92 690q0 305 207 507t515 202t516 -205t208 -510t-207 -507t-516 -202t-516 205t-207 510zM375 687q0 -208 125 -345t315.5 -137t314 137t123.5 344t-124.5 345t-314.5 138t-314.5 -137t-124.5 -345z" glyph-name="O" horiz-adv-x="1630" unicode="O"/><glyph d="M436 489v-137q0 -229 6 -352h-290q6 119 6 360v689q0 221 -6 327h401q233 0 371.5 -120.5t138.5 -323.5t-134 -323t-378 -120h-115zM436 1163v-465h96q111 0 179.5 65t68.5 167t-66.5 167.5t-181.5 65.5h-96z" glyph-name="P" horiz-adv-x="1144" unicode="P"/><glyph d="M813 1399q309 0 517 -205t208 -508q0 -209 -102.5 -366.5t-266.5 -231.5q203 -197 457 -197q76 0 135 17l35 -201q-121 -35 -231 -35q-195 0 -351.5 81t-312.5 243q-39 -8 -98 -8q-307 0 -510 203.5t-203 502.5t207 502t516 203zM814 205q189 0 314 137t125 343 t-124.5 345t-314.5 139t-314.5 -138t-124.5 -344t125 -344t314 -138z" glyph-name="Q" horiz-adv-x="1630" unicode="Q"/><glyph d="M436 532v-170q0 -244 6 -362h-290q6 80 6 365v667q0 272 -6 344h417q219 0 356.5 -107.5t137.5 -310.5q0 -264 -246 -350l189 -293q76 -117 239 -315h-352l-318 532h-139zM436 1157v-426h115q96 0 163.5 55.5t67.5 156.5t-65.5 157.5t-161.5 56.5h-119z" glyph-name="R" horiz-adv-x="1271" unicode="R"/><glyph d="M434 1046q0 -64 46 -109t136 -103t131 -89.5t124 -113t83 -259.5q0 -177 -139 -289t-351 -112t-372 84q6 27 64 242q121 -106 286 -107q96 0 155.5 43t59.5 114t-51 123t-136 104t-125 80t-120 106.5t-80 251.5q0 172 125.5 281.5t305.5 109.5t317 -62v-239 q-115 84 -264 84q-92 0 -143.5 -38t-51.5 -102z" glyph-name="S" horiz-adv-x="1062" unicode="S"/><glyph d="M393 1376h467q264 0 340 2q-6 -117 -12 -239q-141 6 -332 6h-94q-2 -98 -2 -350v-439q0 -252 8 -356h-293q6 143 6 356v430q0 258 -4 359h-96q-190 0 -332 -6v239q96 -2 344 -2z" glyph-name="T" horiz-adv-x="1245" unicode="T"/><glyph d="M430 1006v-471q0 -156 75 -237t206 -81t204.5 83t73.5 237v469q0 272 -4 370h285q-2 -94 -2 -372v-467q0 -264 -150.5 -410.5t-409.5 -146.5t-407.5 150.5t-148.5 406.5v467q-1 288 -5 372h289q-6 -92 -6 -370z" glyph-name="U" horiz-adv-x="1419" unicode="U"/><glyph d="M694 471l373 905h291q-6 -12 -56.5 -110.5t-78.5 -161.5l-504 -1131h-70l-497 1117q-86 190 -144 286h316z" glyph-name="V" horiz-adv-x="1368" unicode="V"/><glyph d="M1933 1376q-380 -1026 -518 -1380h-172q-47 131 -142.5 391t-142.5 389l-290 -780h-170q-459 1217 -523 1380h283q55 -156 168 -470t168 -472q14 25 39 70q23 63 92.5 266t108.5 313q-78 209 -117 293h284q169 -461 304 -844l49 -98q106 303 313 942h266z" glyph-name="W" horiz-adv-x="1910" unicode="W"/><glyph d="M805 176q-164 264 -189 303l-202 -332q-57 -93 -69.5 -117t-16.5 -30h-314q119 152 463 692q-27 45 -224.5 349.5t-219.5 334.5h332q64 -115 150.5 -259t117.5 -197q268 446 272 456h309q-125 -162 -442 -663l246 -387q137 -213 223 -326h-332q-6 12 -104 176z" glyph-name="X" horiz-adv-x="1255" unicode="X"/><glyph d="M510 315v281l-326 522q-90 147 -172 258h332q38 -85 158.5 -283t154.5 -257l217 364q49 82 99 176h307q-8 -12 -56 -82.5t-81 -124.5l-359 -571v-283q1 -184 7 -315h-285q4 213 4 315z" glyph-name="Y" horiz-adv-x="1292" unicode="Y"/><glyph d="M778 231q240 0 318 5v-240q-78 4 -318 4h-729l295 532q297 532 342 613h-254q-260 0 -328 -4l-12 239q92 -4 354 -4h660q-117 -221 -158 -291l-485 -854h315z" glyph-name="Z" horiz-adv-x="1171" unicode="Z"/><glyph d="M569 -397h-413q4 111 4 223v1503q0 111 -4 225h385q111 0 155 2v-204q-86 4 -151 4h-158v-1555h160q106 0 149 4v-206q-35 4 -127 4z" glyph-name="bracketleft" horiz-adv-x="770" unicode="["/><glyph d="M709 -74h-246q-74 252 -224.5 755t-224.5 755h244q288 -956 451 -1510z" glyph-name="backslash" horiz-adv-x="722" unicode="\"/><glyph d="M225 -397q-109 0 -149 -4v206q43 -4 151 -4h158v1555h-158q-70 0 -151 -4v204q43 -2 149 -2h391q-4 -55 -4 -217v-1517q0 -164 4 -217h-391z" glyph-name="bracketright" horiz-adv-x="770" unicode="]"/><glyph d="M514 1219q-13 -23 -201 -336h-247q23 29 213 286.5t206 280.5h72q352 -475 422 -567h-258q-152 240 -207 336z" glyph-name="asciicircum" horiz-adv-x="1044" unicode="^"/><glyph d="M14 -117h918v-135h-918v135z" glyph-name="underscore" horiz-adv-x="946" unicode="_"/><glyph d="M330 1090l-238 325h270q14 -27 104.5 -167t100.5 -158h-237z" glyph-name="grave" horiz-adv-x="905" unicode="`"/><glyph d="M482 993q224 0 320.5 -109.5t96.5 -340.5v-221q0 -203 41 -322h-258l-12 104q-106 -127 -287 -127q-137 0 -224 84t-87 224q0 190 158 255.5t417 65.5v29q0 72 -57.5 115t-163.5 43t-223 -72q-42 93 -84 180q139 92 363 92zM326 291q0 -59 37 -94t89 -35t107 25.5 t92 66.5v176l-141 -6q-86 -4 -135 -39t-49 -94z" glyph-name="a" horiz-adv-x="1019" unicode="a"/><glyph d="M131 0v1323h-108l63 152h313q-8 -82 -8 -160v-412q129 92 281 92q213 0 338 -143t125 -357t-130.5 -360.5t-338.5 -146.5q-168 0 -301 104l-117 -92h-117zM618 205q124 0 186 77.5t62 206.5t-70.5 204t-189.5 75t-215 -104v-365q103 -94 227 -94z" glyph-name="b" horiz-adv-x="1208" unicode="b"/><glyph d="M602 -12q-227 0 -380.5 140t-153.5 357t154.5 361.5t381.5 144.5q127 0 254 -47v-252q-102 70 -231 70t-214 -80t-85 -198t80.5 -195.5t204.5 -77.5t249 68v-244q-117 -47 -260 -47z" glyph-name="c" horiz-adv-x="978" unicode="c"/><glyph d="M1067 1255v-1058q0 -25 6 -197h-215q-33 74 -49 113q-106 -123 -295 -123t-315.5 144.5t-126.5 358.5t125 357t335 143q150 0 275 -86v389h-111l64 152h317q-10 -123 -10 -193zM590 203q119 0 217 108v373q-104 92 -225 92t-186.5 -82t-65.5 -212t70.5 -204.5 t189.5 -74.5z" glyph-name="d" horiz-adv-x="1198" unicode="d"/><glyph d="M586 -16q-238 0 -378 137t-140 360t123 367.5t347 144.5t335.5 -136t111.5 -316q0 -44 -10 -105h-653q16 -241 294 -241q140 0 312 86v-205q-156 -92 -342 -92zM534 788q-95 0 -151.5 -60t-67.5 -140h422q-2 90 -55 145t-148 55z" glyph-name="e" horiz-adv-x="1044" unicode="e"/><glyph d="M59 762v211h164v94q0 197 94.5 302.5t266.5 105.5q104 0 231 -31l-39 -209q-55 29 -132 29t-117 -52.5t-40 -134.5v-104h242l-41 -211h-201v-555q0 -154 5 -207h-273q4 180 4 207v555h-164z" glyph-name="f" horiz-adv-x="757" unicode="f"/><glyph d="M471 -451q-215 0 -338 41q29 97 68 195q98 -25 266 -25t229.5 72t61.5 252q-109 -98 -264 -98q-197 0 -323 136t-126 351t122 365.5t308 150.5q84 0 166 -31.5t127 -87.5v103h264q-4 -12 -20.5 -75.5t-18.5 -76.5l4 -710q0 -297 -125 -429.5t-401 -132.5zM560 778 q-120 0 -186.5 -86t-66.5 -213t64.5 -204.5t175.5 -77.5t209 90v389q-76 102 -196 102z" glyph-name="g" horiz-adv-x="1075" unicode="g"/><glyph d="M135 1311h-94q20 49 61 151h310q-8 -68 -9 -207v-399q119 133 299 133t273.5 -116.5t93.5 -325.5v-371q0 -109 6 -176h-282q6 94 6 289v209q0 272 -181 272q-139 0 -215 -154v-442q0 -45 7 -174h-281q6 82 6 221v1090z" glyph-name="h" horiz-adv-x="1198" unicode="h"/><glyph d="M141 207v553q0 152 -10 213h285q-6 -80 -6 -207v-559q0 -139 6 -207h-283q8 68 8 207zM133 1258q0 62 43.5 105.5t105.5 43.5t105 -43.5t43 -105.5t-43 -105t-105 -43t-105.5 43t-43.5 105z" glyph-name="i" horiz-adv-x="546" unicode="i"/><glyph d="M133 1258q0 62 43.5 105.5t105.5 43.5t105 -43.5t43 -105.5t-43 -105t-105 -43t-105.5 43t-43.5 105zM418 762v-647q0 -429 -128 -501.5t-235 -72.5h-184v219h119q160 0 160 260v738q0 141 -9 215h283q-6 -74 -6 -211z" glyph-name="j" horiz-adv-x="563" unicode="j"/><glyph d="M397 203q0 -141 4 -203h-274q6 70 6 211v1100h-96q20 43 61 151h303q-4 -98 -4 -207v-682l377 400h322q-293 -281 -457 -445q25 -27 209 -229.5t280 -298.5h-340q-66 72 -195.5 211t-195.5 211v-219z" glyph-name="k" horiz-adv-x="1140" unicode="k"/><glyph d="M393 1268v-1061q0 -166 6 -207h-268q4 41 4 207v1104h-100l63 151h303q-8 -40 -8 -194z" glyph-name="l" horiz-adv-x="552" unicode="l"/><glyph d="M1266 991q154 0 241.5 -102.5t87.5 -288.5v-397q0 -117 7 -203h-281q4 84 4 219v361q0 188 -135 188q-117 0 -189 -145v-420q1 -68 5 -203h-279q4 72 4 219v365q0 184 -137 184q-123 0 -188 -145v-402q0 -164 2 -221h-275q2 76 2 205v614h-102l65 154h301l7 -131 q118 150 300 150t252 -163q119 162 308 162z" glyph-name="m" horiz-adv-x="1718" unicode="m"/><glyph d="M788 242v342q0 88 -49 136t-125 48q-143 0 -213 -152v-374q0 -178 5 -242h-275q6 98 6 242v577h-100q7 10 36 81t29 73h291q8 -48 8 -123q113 141 306 141q348 0 348 -446v-307q0 -178 6 -238h-277q4 70 4 242z" glyph-name="n" horiz-adv-x="1177" unicode="n"/><glyph d="M74 488q0 210 146.5 356.5t353 146.5t351 -148.5t144.5 -359.5t-146.5 -354t-354.5 -143t-351 146t-143 356zM334 482q0 -110 67.5 -189.5t170 -79.5t170 80t67.5 194.5t-68.5 193.5t-170.5 79t-169 -84t-67 -194z" glyph-name="o" horiz-adv-x="1142" unicode="o"/><glyph d="M620 205q122 0 186 71.5t64 211.5t-66.5 215t-170.5 75q-68 0 -131.5 -31.5t-102.5 -72.5v-375q99 -94 221 -94zM139 -233v1054h-108q57 137 63 152h309q-4 -70 -4 -105q113 125 305 125t310.5 -141t118.5 -353t-126 -360.5t-335 -148.5q-154 0 -275 82v-506 q-47 -6 -134 -19.5t-126 -19.5q2 74 2 240z" glyph-name="p" horiz-adv-x="1212" unicode="p"/><glyph d="M1065 731v-946q0 -145 6 -246h-274q6 102 6 252v318q-111 -123 -297 -123t-310 145t-124 359t122.5 356.5t321.5 142.5q147 0 287 -94v78h270q-8 -127 -8 -242zM593 770q-122 0 -189.5 -81t-67.5 -201.5t65.5 -201.5t176.5 -81q59 0 122.5 24.5t102.5 67.5v395 q-88 78 -210 78z" glyph-name="q" horiz-adv-x="1210" unicode="q"/><glyph d="M420 209q0 -117 6 -209h-281q4 139 5 211v608h-99q20 54 64 154h260q16 -170 18 -201q125 221 289 221q59 0 111 -28q-10 -52 -52 -252q-55 23 -108 23t-118.5 -42.5t-96.5 -93.5l2 -133v-258z" glyph-name="r" horiz-adv-x="806" unicode="r"/><glyph d="M373 721q0 -37 41 -67.5t99 -59.5t116.5 -64.5t99.5 -100t41 -153.5q0 -141 -101 -220t-291 -79t-302 66q8 37 23.5 109.5t23.5 109.5q119 -90 244 -90q66 0 102.5 26.5t36.5 67.5t-54 72.5t-140.5 74t-144.5 113t-58 188.5t94.5 197.5t238.5 79.5t289 -47v-217 q-127 74 -235 74q-57 0 -90 -21.5t-33 -58.5z" glyph-name="s" horiz-adv-x="856" unicode="s"/><glyph d="M461 1049v-76h266q-12 -82 -35 -211h-231v-363q0 -193 137 -192q45 0 94 26q20 -111 39 -196q-87 -53 -231 -53t-224.5 100t-80.5 295v383h-144v211h144v203l270 61q-4 -111 -4 -188z" glyph-name="t" horiz-adv-x="800" unicode="t"/><glyph d="M401 584q0 -209 32 -296t134 -87q143 0 183 155v432q0 131 -5 185h281q-6 -76 -6 -180v-582q0 -127 20 -211h-237q-4 23 -14.5 68t-14.5 65q-84 -147 -282 -147q-162 0 -261.5 102t-99.5 313v418h-96l63 154h308q-4 -135 -5 -205v-184z" glyph-name="u" horiz-adv-x="1132" unicode="u"/><glyph d="M322 973q0 -2 57 -152l156 -405l155 411q8 23 51 146h283q-86 -164 -106 -209l-353 -787h-100l-352 787q-50 111 -107 209h316z" glyph-name="v" horiz-adv-x="1032" unicode="v"/><glyph d="M1212 973h273q-53 -117 -103 -244l-280 -745h-92l-258 612l-250 -612h-99l-299 757q-31 78 -98 232h301q12 -51 58 -178l135 -377l207 555h112q16 -47 104.5 -268.5t108.5 -284.5l127 387q53 164 53 166z" glyph-name="w" horiz-adv-x="1490" unicode="w"/><glyph d="M985 973q-59 -73 -326 -479q31 -49 93.5 -146.5t109.5 -173.5t119 -174h-293q-31 51 -96.5 151.5t-95.5 149.5q-160 -246 -195 -301h-291q72 90 189.5 266t148.5 219q-16 27 -82.5 131.5t-102.5 162.5t-138 194h305q74 -123 184 -297q14 22 64 96t127 201h280z" glyph-name="x" horiz-adv-x="1005" unicode="x"/><glyph d="M283 -403h-187l25 213q119 0 153 12q61 8 148 215q6 12 8 18q-12 29 -117.5 258.5t-197.5 431t-107 228.5h316q16 -48 111 -286t132 -335q10 29 56.5 145.5t82.5 211t85 264.5h296q-186 -414 -319 -732q-133 -319 -152.5 -361t-58.5 -107.5t-99.5 -120.5t-174.5 -55z" glyph-name="y" horiz-adv-x="1097" unicode="y"/><glyph d="M254 973h647q-299 -500 -448 -748h260q74 0 180 4v-231q-43 2 -154 2h-692q76 125 226.5 374t226.5 371h-252q-109 0 -156 -4q-4 156 -4 234q45 -2 166 -2z" glyph-name="z" horiz-adv-x="946" unicode="z"/><glyph d="M729 -395q-37 0 -179 8t-224 119.5t-82 300.5l6 246q0 98 -49 152t-142 56v203q190 4 191 213l-6 230q0 184 81 293.5t240 121.5q33 2 79 5t85 3q4 -131 8 -200l-24 2q-231 0 -232 -217l6 -221q0 -129 -48 -215.5t-132 -112.5q18 -8 39 -29q141 -68 141 -303l-6 -240 q0 -123 60.5 -169t193.5 -46q-6 -105 -6 -200z" glyph-name="braceleft" horiz-adv-x="798" unicode="{"/><glyph d="M367 -438h-215v1994h215v-1994z" glyph-name="bar" horiz-adv-x="516" unicode="|"/><glyph d="M315 41v37l-4 186q2 252 181 328q-84 25 -133.5 112t-49.5 216l6 221q0 119 -54 168t-163 49q-25 0 -37 -2l9 200q57 2 168 -8q152 -14 234.5 -124.5t82.5 -286.5l-6 -222q0 -221 188 -225v-203q-188 -4 -188 -206l6 -248q0 -180 -81 -294t-238 -126q-43 -4 -101 -6 l-59 -2q-14 63 -15 200l29 -2q121 0 173 55.5t52 182.5z" glyph-name="braceright" horiz-adv-x="808" unicode="}"/><glyph d="M342 362h-274q4 133 94 232.5t233 99.5q61 0 152.5 -43t118.5 -43q55 0 75 78h279q-4 -135 -94 -233.5t-236 -98.5q-90 0 -167 43t-109 43t-52 -22.5t-20 -55.5z" glyph-name="asciitilde" horiz-adv-x="1112" unicode="~"/><glyph d="M449 -240l2 -174h-277q4 123 4 221l8 603l-2 55h256l2 -246l7 -383v-76zM154 800q0 67 47 114t112.5 47t113.5 -47.5t48 -113.5t-48 -113.5t-113.5 -47.5t-112.5 47t-47 114z" glyph-name="exclamdown" horiz-adv-x="628" unicode="¡"/><glyph d="M727 -111h-147v185q-184 31 -295 156.5t-111 313.5t114.5 317.5t293.5 160.5v192h145v-186q94 -4 158 -27v-243q-79 45 -183 46t-182 -68.5t-78 -188.5t74 -187.5t186 -67.5t187 42l10 -236q-80 -29 -172 -30v-179z" glyph-name="cent" horiz-adv-x="1112" unicode="¢"/><glyph d="M143 614v170h187q29 592 510 592q106 0 202 -30l-30 -222q-61 33 -154 33q-238 0 -258 -287q-6 -24 -6 -86h303l-31 -170h-282q-6 -147 -48 -255.5t-108 -155.5q160 6 211 6h158q115 0 213 4v-217q-55 4 -207 4h-737v203q125 12 187 109.5t66 301.5h-176z" glyph-name="sterling" horiz-adv-x="1112" unicode="£"/><glyph d="M129 645q0 117 70 223l-39 39q-39 39 -70 69t-41 42l133 131l150 -150q96 66 212 66t232 -66l142 142l133 -133l-138 -140q70 -114 70 -226t-70 -214l146 -145l-135 -133l-150 147q-100 -63 -222 -63t-218 61l-139 -141l-138 133l142 141q-70 100 -70 217zM352 647 q0 -86 59.5 -146.5t144.5 -60.5t144.5 61.5t59.5 145.5t-59.5 146.5t-144.5 62.5t-144.5 -61.5t-59.5 -147.5z" glyph-name="currency" horiz-adv-x="1112" unicode="¤"/><glyph d="M412 209v88h-256v131h256v119h-256v133h258q-142 250 -242 426t-147 252h305q74 -157 229 -443q205 358 242 443h282q-16 -27 -112 -194t-285 -484h262v-133h-262v-119h262v-131h-262v-86q0 -96 6 -211h-286q6 117 6 209z" glyph-name="yen" horiz-adv-x="1112" unicode="¥"/><glyph d="M367 819h-215v740h215v-740zM367 -438h-215v739h215v-739z" glyph-name="brokenbar" horiz-adv-x="516" unicode="¦"/><glyph d="M471 1135q0 -55 49.5 -96.5t133.5 -75.5q152 -62 254 -140t102 -234q0 -155 -162 -257q109 -82 108 -230q0 -29 -8 -51q-16 -137 -129.5 -209.5t-309.5 -72.5t-349 65q9 45 41 217q129 -84 301 -84q33 0 63 10q131 18 131 119q0 96 -215 183q-84 33 -131 56t-138 86.5 t-91 213.5q0 25 6 47q23 152 184 225q-47 37 -80.5 99.5t-33.5 130.5q0 150 101.5 233.5t287.5 83.5t325 -55v-213q-115 70 -280 69q-37 0 -58 -10q-102 -18 -102 -110zM356 687q0 -89 140 -161q38 -20 112 -53t99 -45q68 57 67 131q0 49 -34.5 90t-68.5 60.5t-106 49.5 t-127 60q-82 -43 -82 -132z" glyph-name="section" horiz-adv-x="1124" unicode="§"/><glyph d="M100 1251.5q0 55.5 40 95t96 39.5t96.5 -39.5t40.5 -95t-40 -95.5t-96 -40t-96.5 40t-40.5 95.5zM526 1251.5q0 55.5 41 95t96.5 39.5t95.5 -39.5t40 -95t-40 -95.5t-95.5 -40t-96.5 40t-41 95.5z" glyph-name="dieresis" horiz-adv-x="899" unicode="¨"/><glyph d="M100 671q0 284 199 484.5t481.5 200.5t481 -201t198.5 -485t-197.5 -482t-482 -198t-482.5 198.5t-198 482.5zM244 673q0 -230 155.5 -390t381.5 -160t382 159.5t156 389.5t-156.5 389.5t-380.5 159.5t-381 -159t-157 -389zM449 671q0 161 110.5 272.5t271.5 111.5 q84 0 164 -25v-188q-61 37 -148 37t-145.5 -59.5t-58.5 -145.5q0 -27 6 -47q12 -70 65.5 -114t135.5 -44t147 39l11 -189q-90 -29 -185 -28q-160 0 -267 109.5t-107 270.5z" glyph-name="copyright" horiz-adv-x="1564" unicode="©"/><glyph d="M541 201q0 -128 18 -201h-151q-6 12 -17 55q-68 -71 -156 -71t-140 48t-52 126q0 104 94 149q59 24 160 29l78 4v14q0 14 -4 27q-15 63 -105 63t-151 -30q-31 90 -37 108q94 41 270.5 41t190.5 -209q2 -16 2 -53v-100zM205 167q0 -73 84 -73q45 0 88 43v101 q-12 -2 -67.5 -4.5t-71.5 -12.5q-33 -20 -33 -54z" glyph-name="ordfeminine" horiz-adv-x="815" unicode="ª"/><glyph d="M659 29l-544 428v41q469 375 542 432v-246q-43 -35 -129 -103.5t-129 -103.5q59 -47 260 -201v-247zM1198 29l-543 428v41q180 145 541 432v-246q-43 -35 -129 -103.5t-129 -103.5q201 -154 260 -201v-247z" glyph-name="guillemotleft" horiz-adv-x="1386" unicode="«"/><glyph d="M743 520h-688v205h938v-559h-250v354z" glyph-name="logicalnot" horiz-adv-x="1112" unicode="¬"/><glyph d="M121 1114.5q0 151.5 105.5 257t255 105.5t255 -106.5t105.5 -257.5t-105.5 -256t-256.5 -105t-255 105.5t-104 257zM203 1114q0 -119 81 -202t197.5 -83t197.5 83t81 202t-81 202t-197.5 83t-197.5 -83t-81 -202zM430 1077v-145h-84q2 25 2 84v201q0 66 -2 88h115 q143 0 143 -109q0 -39 -22.5 -66.5t-59.5 -37.5q40 -48 74.5 -99t42.5 -61h-96q-39 74 -84 145h-29zM430 1133h33q6 0 14 4q55 6 55 53q0 57 -69 57h-33v-114z" glyph-name="registered" horiz-adv-x="976" unicode="®"/><glyph d="M156 1325h587v-180h-587v180z" glyph-name="macron" horiz-adv-x="899" unicode="¯"/><glyph d="M61 1096q0 121 85 205.5t206 84.5t205 -83.5t84 -203.5t-86 -207t-208 -87t-204 85t-82 206zM223 1095.5q0 -55.5 36 -93t90 -37.5t91 38.5t37 92.5t-37 92.5t-88 38.5t-90 -38t-39 -93.5z" glyph-name="degree" horiz-adv-x="702" unicode="°"/><glyph d="M438 692h-342v203h342v328h234v-328h342v-203h-342v-327h-234v327zM98 229h914v-209h-914v209z" glyph-name="plusminus" horiz-adv-x="1112" unicode="±"/><glyph d="M90 872v125q10 8 94.5 85.5t148.5 156.5q65 80 65 137t-32 89t-104 32t-147 -55q-2 53 -11 180q106 51 230 51t199 -68.5t75 -189.5q0 -52 -17.5 -86.5t-26.5 -54t-31.5 -45t-34 -40.5t-39 -41t-38.5 -36t-41 -36.5t-36 -33.5h145q55 0 146 5v-175h-545z" glyph-name="uni00B2" horiz-adv-x="735" unicode="²"/><glyph d="M391 1430q0 80 -93 81q-93 0 -171 -45l-10 170q103 39 215 39t189 -54t77 -153q0 -131 -152 -184q76 -18 126.5 -67.5t50.5 -122.5q0 -104 -85 -167t-218.5 -63t-215.5 39q2 10 5.5 85t3.5 81q68 -45 180 -45q57 0 89 24.5t32 67.5t-34 67.5t-95 24.5l-52 -2v146l43 -2 q115 0 115 80z" glyph-name="uni00B3" horiz-adv-x="737" unicode="³"/><glyph d="M748 1413l-240 -326h-238l207 326h271z" glyph-name="acute" horiz-adv-x="899" unicode="´"/><glyph d="M406 766v-182q0 -113 12 -203q23 -180 188 -180q68 0 122 45t71 110v392q0 158 -4 223h278q-4 -61 -4 -219v-541q0 -104 16 -211h-233q-13 44 -31 133q-90 -147 -241 -147q-127 -1 -195 112q10 -86 10 -225v-145q0 -113 8 -201h-274q6 78 6 207v1083h-96l63 154h308 q-4 -131 -4 -205z" glyph-name="uni00B5" horiz-adv-x="1204" unicode="µ"/><glyph d="M594 92v352q-233 6 -367.5 129t-134.5 334t146.5 340t365.5 129h572v-1583h-150v1430h-172v-1076q0 -217 6 -354h-272q6 117 6 299z" glyph-name="paragraph" horiz-adv-x="1318" unicode="¶"/><glyph d="M106 523q0 75 52.5 127t127.5 52t126 -52t51 -127t-51.5 -127t-125.5 -52t-127 52t-53 127z" glyph-name="periodcentered" horiz-adv-x="569" unicode="·"/><glyph d="M659 -279q0 -99 -73.5 -151.5t-169.5 -52.5t-168 24q6 69 6 133q66 -27 115 -26q86 0 98 53q4 12 4 18q0 70 -119 70q-40 0 -63 -6q40 71 57 117q37 78 45 94h141q-8 -14 -22 -44t-23 -44q172 -29 172 -185z" glyph-name="cedilla" horiz-adv-x="911" unicode="¸"/><glyph d="M479 1522v-525q0 -86 4 -125h-202v586q-51 -18 -181 -72q-10 51 -26 150q149 59 309 133h98q-2 -31 -2 -147z" glyph-name="uni00B9" horiz-adv-x="651" unicode="¹"/><glyph d="M45 283q0 127 88 214t217 87t217 -87t88 -214t-87 -215t-217 -88t-218 88t-88 215zM209 280q0 -62 40 -107.5t100 -45.5t100 45t40 110.5t-39.5 109.5t-99 44t-100.5 -47t-41 -109z" glyph-name="ordmasculine" horiz-adv-x="915" unicode="º"/><glyph d="M733 932l541 -432v-41l-543 -430v247l260 203l-258 205v248zM193 684v248q49 -43 542 -432v-41l-545 -430v247l261 203z" glyph-name="guillemotright" horiz-adv-x="1386" unicode="»"/><glyph d="M223 0l957 1368h215q-639 -913 -959 -1368h-213zM1069 0v125q8 8 40 35.5t45 41t44 42t46.5 46t73.5 80t58 142.5q0 47 -31.5 80t-102.5 33t-148 -58q-2 55 -11 183q102 49 227 49t201 -68.5t76 -189.5q0 -67 -27.5 -111.5t-41 -65t-49 -56.5t-46 -47t-54.5 -51t-46 -42 h145q78 0 146 6v-174h-545zM485 1225v-525q0 -88 4 -127h-202v588q-88 -39 -181 -71q-12 55 -26 149q104 39 309 133h98q-2 -33 -2 -147z" glyph-name="onequarter" horiz-adv-x="1681" unicode="¼"/><glyph d="M223 0l957 1368h215q-639 -913 -959 -1368h-213zM1069 0v125q8 8 40 35.5t45 41t44 42t46.5 46t73.5 80t58 142.5q0 47 -31.5 80t-102.5 33t-148 -58q-2 55 -11 183q102 49 227 49t201 -68.5t76 -189.5q0 -67 -27.5 -111.5t-41 -65t-49 -56.5t-46 -47t-54.5 -51t-46 -42 h145q78 0 146 6v-174h-545zM485 1225v-525q0 -88 4 -127h-202v588q-88 -39 -181 -71q-12 55 -26 149q104 39 309 133h98q-2 -33 -2 -147z" glyph-name="onehalf" horiz-adv-x="1691" unicode="½"/><glyph d="M223 0l957 1368h215q-639 -913 -959 -1368h-213zM1069 0v125q8 8 40 35.5t45 41t44 42t46.5 46t73.5 80t58 142.5q0 47 -31.5 80t-102.5 33t-148 -58q-2 55 -11 183q102 49 227 49t201 -68.5t76 -189.5q0 -67 -27.5 -111.5t-41 -65t-49 -56.5t-46 -47t-54.5 -51t-46 -42 h145q78 0 146 6v-174h-545zM314 1214q-93 0 -171 -45l-10 170q104 39 216 39t188.5 -54t76.5 -153q0 -131 -151 -184q76 -18 126 -67.5t50 -122.5q0 -104 -85 -167t-218 -63t-215 39q8 40 8 166q68 -45 180 -45q57 0 89 24.5t32 67.5t-34 67.5t-95 24.5l-51 -2v146l43 -2 q115 0 115 82q-1 79 -94 79z" glyph-name="threequarters" horiz-adv-x="1673" unicode="¾"/><glyph d="M633 549q0 -186 -63 -269t-107.5 -126t-48.5 -47.5t-15.5 -17.5t-15.5 -20.5t-13.5 -24t-9.5 -44.5q0 -82 57 -124t123 -42t131.5 35t110.5 86v-252q-109 -100 -280 -100t-291.5 79t-120.5 267q0 131 139 262q53 49 70 65q47 51 63.5 111t18.5 162h252zM657 834 q0 -66 -48 -113t-113.5 -47t-113.5 47t-48 112.5t48 111.5t115 47t113.5 -45.5t46.5 -112.5z" glyph-name="questiondown" horiz-adv-x="927" unicode="¿"/><glyph d="M571 1540l-237 326h270q14 -27 104 -167t101 -159h-238zM414 307l-123 -307h-279q80 158 172 367l453 1030h94l477 -1061q59 -135 168 -336h-319q-8 23 -123 307h-520zM848 512l-178 451l-174 -451h352z" glyph-name="Agrave" unicode="À"/><glyph d="M993 1866l-239 -326h-238l207 326h270zM414 307l-123 -307h-279q80 158 172 367l453 1030h94l477 -1061q59 -135 168 -336h-319q-8 23 -123 307h-520zM848 512l-178 451l-174 -451h352z" glyph-name="Aacute" unicode="Á"/><glyph d="M690 1690l-108 -150h-205l274 334h82q18 -25 139 -167t140 -167h-215zM414 307l-123 -307h-279q80 158 172 367l453 1030h94l477 -1061q59 -135 168 -336h-319q-8 23 -123 307h-520zM848 512l-178 451l-174 -451h352z" glyph-name="Acircumflex" unicode="Â"/><glyph d="M414 307l-123 -307h-279q80 158 172 367l453 1030h94l477 -1061q59 -135 168 -336h-319q-8 23 -123 307h-520zM848 512l-178 451l-174 -451h352zM573 1798q61 0 131 -43t103 -43q53 0 57 74h152q-2 -90 -47.5 -168t-133.5 -77q-87 1 -151 43t-92 42q-4 0 -17 -4 q-41 -11 -43 -70h-161q2 90 52 168t150 78z" glyph-name="Atilde" unicode="Ã"/><glyph d="M346 1675q0 55 40 95t96 40t96 -40t40 -95t-40 -95t-96 -40t-96 40t-40 95zM772 1675q0 55 41 95t96 40t95 -40t40 -95t-40 -95t-94 -40q-56 0 -97 40t-41 95zM414 307l-123 -307h-279q80 158 172 367l453 1030h94l477 -1061q59 -135 168 -336h-319q-8 23 -123 307h-520z M848 512l-178 451l-174 -451h352z" glyph-name="Adieresis" unicode="Ä"/><glyph d="M414 307l-123 -307h-279q80 158 172 367l453 1030h94l477 -1061q59 -135 168 -336h-319q-8 23 -123 307h-520zM848 512l-178 451l-174 -451h352zM481 1737q0 84 61.5 140t152.5 56t153.5 -56t62.5 -139t-62.5 -140.5t-153.5 -57.5t-152.5 56.5t-61.5 140.5zM621 1736.5 q0 -32.5 20.5 -57t54.5 -24.5t55 22.5t21 57t-21.5 57.5t-54.5 23t-54 -23t-21 -55.5z" glyph-name="Aring" unicode="Å"/><glyph d="M1411 0h-440l-53 309h-476q-10 -20 -151 -309h-287q112 190 382.5 728t326.5 648h469q215 0 334 6l-13 -239q-74 4 -321 4h-185q29 -141 62 -344h198q215 0 293 4v-234q-78 4 -284 5h-160l57 -349h187q214 1 292 9v-240q-72 2 -231 2zM532 516h342q-38 246 -94 541 q-41 -90 -124 -270.5t-124 -270.5z" glyph-name="AE" horiz-adv-x="1736" unicode="Æ"/><glyph d="M760 -483q-96 0 -168 24q6 69 6 133q66 -27 115 -26q86 0 98 53q4 12 4 18q0 70 -119 70q-40 0 -63 -6q40 71 57 117q37 78 45 94h142q-9 -14 -23 -44t-23 -44q172 -29 173 -185q0 -99 -74 -151q-74 -53 -170 -53zM836 217q-196 0 -328 134q-133 134 -133 334t131 336 t332 136t321 -96v282q-172 57 -330 58q-321 0 -529 -204t-208 -513t204 -508t533 -199q197 0 338 52v274q-135 -86 -331 -86z" glyph-name="Ccedilla" horiz-adv-x="1280" unicode="Ç"/><glyph d="M434 823h127q236 0 320 4v-233q-84 4 -320 4h-127v-369h176q240 0 320 4v-237q-80 4 -316 4h-462q6 66 6 346v682q0 217 -6 348h493q188 0 291 6l-43 -239q-78 4 -354 4h-105v-324zM401 1526l-237 325h270q14 -27 104.5 -167t100.5 -158h-238z" glyph-name="Egrave" horiz-adv-x="1050" unicode="È"/><glyph d="M823 1851q-43 -67 -239 -325h-238l207 325h270zM434 823h127q236 0 320 4v-233q-84 4 -320 4h-127v-369h176q240 0 320 4v-237q-80 4 -316 4h-462q6 66 6 346v682q0 217 -6 348h493q188 0 291 6l-43 -239q-78 4 -354 4h-105v-324z" glyph-name="Eacute" horiz-adv-x="1050" unicode="É"/><glyph d="M434 823h127q236 0 320 4v-233q-84 4 -320 4h-127v-369h176q240 0 320 4v-237q-80 4 -316 4h-462q6 66 6 346v682q0 217 -6 348h493q188 0 291 6l-43 -239q-78 4 -354 4h-105v-324zM520 1675l-108 -149h-205l274 334h82q18 -25 139 -167.5t140 -166.5h-215z" glyph-name="Ecircumflex" horiz-adv-x="1050" unicode="Ê"/><glyph d="M176 1661q0 55 40 95t96 40t96 -40t41 -95q0 -55 -40 -95q-41 -40 -97 -40t-96 40t-40 95zM602 1661q0 55 41 95t96 40t95 -40t40 -95t-40 -95t-94 -40q-56 0 -97 40t-41 95zM434 823h127q236 0 320 4v-233q-84 4 -320 4h-127v-369h176q240 0 320 4v-237q-80 4 -316 4 h-462q6 66 6 346v682q0 217 -6 348h493q188 0 291 6l-43 -239q-78 4 -354 4h-105v-324z" glyph-name="Edieresis" horiz-adv-x="1050" unicode="Ë"/><glyph d="M440 991v-626q0 -272 4 -365h-286q6 129 6 365v626q0 244 -6 385h286q-4 -68 -4 -385zM178 1520l-237 325h270q14 -27 104.5 -167t100.5 -158h-238z" glyph-name="Igrave" horiz-adv-x="602" unicode="Ì"/><glyph d="M123 1520l207 325h270q-16 -25 -118 -163t-122 -162h-237zM440 991v-626q0 -272 4 -365h-286q6 129 6 365v626q0 244 -6 385h286q-4 -68 -4 -385z" glyph-name="Iacute" horiz-adv-x="602" unicode="Í"/><glyph d="M440 991v-626q0 -272 4 -365h-286q6 129 6 365v626q0 244 -6 385h286q-4 -68 -4 -385zM297 1669l-109 -149h-204l274 333h82q18 -25 139 -167t139 -166h-215z" glyph-name="Icircumflex" horiz-adv-x="602" unicode="Î"/><glyph d="M-47 1655q0 55 40 95t96 40t96 -40t40 -95t-40 -95t-96 -40t-96 40t-40 95zM379 1655q0 55 41 95t96 40t95 -40t40 -95t-40 -95t-95 -40t-96 40t-41 95zM440 991v-626q0 -272 4 -365h-286q6 129 6 365v626q0 244 -6 385h286q-4 -68 -4 -385z" glyph-name="Idieresis" horiz-adv-x="602" unicode="Ï"/><glyph d="M578 1376q72 0 139 -6q272 -20 448 -208.5t176 -486.5t-233 -505q-176 -152 -418 -168q-45 -2 -141 -2h-373q6 117 6 346v242h-155v207h155v211q0 243 -6 370h402zM461 227h155q203 0 324 131t121 331t-125 329t-322 129h-153v-352h264v-207h-264v-361z" glyph-name="Eth" horiz-adv-x="1435" unicode="Ð"/><glyph d="M614 1798q61 0 131 -43t103 -43q53 0 57 74h152q-2 -90 -48 -168t-133 -77q-88 1 -152 43t-91 42q-4 0 -17 -4q-41 -11 -43 -70h-161q2 90 52 168t150 78zM422 287q0 -170 6 -287h-276q4 80 4 293v731q0 240 -4 373h98l797 -875v502q0 227 -7 352h283q-8 -166 -8 -346 v-737q0 -213 4 -305h-100l-797 882v-583z" glyph-name="Ntilde" horiz-adv-x="1472" unicode="Ñ"/><glyph d="M692 1542l-237 326h270q14 -27 104 -167t101 -159h-238zM92 690q0 305 207 507t515 202t516 -205t208 -510t-207 -507t-516 -202t-516 205t-207 510zM375 687q0 -208 125 -345t315 -137t314 137t124 344t-125 345t-314 138t-314 -137t-125 -345z" glyph-name="Ograve" horiz-adv-x="1630" unicode="Ò"/><glyph d="M1114 1868q-41 -65 -240 -326h-237l207 326h270zM92 690q0 305 207 507t515 202t516 -205t208 -510t-207 -507t-516 -202t-516 205t-207 510zM375 687q0 -208 125 -345t315 -137t314 137t124 344t-125 345t-314 138t-314 -137t-125 -345z" glyph-name="Oacute" horiz-adv-x="1630" unicode="Ó"/><glyph d="M92 690q0 305 207 507t515 202t516 -205t208 -510t-207 -507t-516 -202t-516 205t-207 510zM375 687q0 -208 125 -345t315.5 -137t314 137t123.5 344t-124.5 345t-314.5 138t-314.5 -137t-124.5 -345zM811 1692l-109 -150h-204l274 334h82q18 -25 139 -167t140 -167h-215 z" glyph-name="Ocircumflex" horiz-adv-x="1630" unicode="Ô"/><glyph d="M694 1800q61 0 131 -43t103 -43q53 0 57 74h152q-2 -90 -48 -168t-133 -77q-88 1 -152 43t-91 42q-4 0 -17 -4q-41 -11 -43 -70h-161q2 90 52 168t150 78zM92 690q0 305 207 507t515 202t516 -205t208 -510t-207 -507t-516 -202t-516 205t-207 510zM375 687 q0 -208 125 -345t315 -137t314 137t124 344t-125 345t-314 138t-314 -137t-125 -345z" glyph-name="Otilde" horiz-adv-x="1630" unicode="Õ"/><glyph d="M467 1677q0 55 40 95t96 40t96 -40t40 -94q0 -56 -40 -96t-96 -40t-96 40t-40 95zM893 1677q0 55 41 95t96 40t95 -40t40 -94q0 -56 -40 -96t-95 -40t-96 40t-41 95zM92 690q0 305 207 507t515 202t516 -205t208 -510t-207 -507t-516 -202t-516 205t-207 510zM375 687 q0 -208 125 -345t315 -137t314 137t124 344t-125 345t-314 138t-314 -137t-125 -345z" glyph-name="Odieresis" horiz-adv-x="1630" unicode="Ö"/><glyph d="M877 92q-85 82 -302 303l-296 -297q-23 20 -46.5 45t-30.5 33l-69 68l299 295q-205 205 -307 303q94 94 145 143l301 -301q295 289 299 293l146 -141l-78 -78q-78 -78 -128 -127t-93 -94q100 -100 305 -301q-49 -47 -145 -144z" glyph-name="multiply" horiz-adv-x="1150" unicode="×"/><glyph d="M815 1399q209 0 391 -115q78 89 88 102h234l-185 -208q195 -205 195 -502t-207 -499t-516 -202q-217 0 -397 111l-84 -96h-230q59 68 179 207q-191 201 -191 499t207 500.5t516 202.5zM815 205q193 0 316.5 137t123.5 344q0 154 -84 283q-428 -498 -593 -690 q106 -74 237 -74zM375 686q0 -156 80 -283q25 29 250 293.5t344 399.5q-104 74 -234 73q-193 0 -316.5 -137t-123.5 -346z" glyph-name="Oslash" horiz-adv-x="1630" unicode="Ø"/><glyph d="M586 1520l-238 325h270q14 -27 104 -167t101 -158h-237zM430 1006v-471q0 -156 75 -237t206 -81t205 83t73 237v469q0 272 -4 370h285q-2 -94 -2 -372v-467q0 -265 -151 -411t-409 -146t-408 150q-148 151 -148 407v467q-1 288 -5 372h289q-6 -92 -6 -370z" glyph-name="Ugrave" horiz-adv-x="1419" unicode="Ù"/><glyph d="M530 1520l207 325h271q-16 -25 -118 -163t-122 -162h-238zM430 1006v-471q0 -156 75 -237t206 -81t205 83t73 237v469q0 272 -4 370h285q-2 -94 -2 -372v-467q0 -265 -151 -411t-409 -146t-408 150q-148 151 -148 407v467q-1 288 -5 372h289q-6 -92 -6 -370z" glyph-name="Uacute" horiz-adv-x="1419" unicode="Ú"/><glyph d="M430 1006v-471q0 -156 75 -237t206 -81t204.5 83t73.5 237v469q0 272 -4 370h285q-2 -94 -2 -372v-467q0 -264 -150.5 -410.5t-409.5 -146.5t-407.5 150.5t-148.5 406.5v467q-1 288 -5 372h289q-6 -92 -6 -370zM705 1669l-109 -149h-205l275 333h82q18 -25 139 -167 t139 -166h-215z" glyph-name="Ucircumflex" horiz-adv-x="1419" unicode="Û"/><glyph d="M430 1006v-471q0 -156 75 -237t206 -81t204.5 83t73.5 237v469q0 272 -4 370h285q-2 -94 -2 -372v-467q0 -264 -150.5 -410.5t-409.5 -146.5t-407.5 150.5t-148.5 406.5v467q-1 288 -5 372h289q-6 -92 -6 -370zM360 1654.5q0 55.5 40 95.5t96 40t96.5 -40t40.5 -95.5 t-40 -95t-96 -39.5t-96.5 39.5t-40.5 95zM786 1654.5q0 55.5 41 95.5t96.5 40t95.5 -40t40 -95.5t-40 -95t-95.5 -39.5t-96.5 39.5t-41 95z" glyph-name="Udieresis" horiz-adv-x="1419" unicode="Ü"/><glyph d="M944 1845q-28 -43 -239 -325h-238l207 325h270zM510 315v281l-326 522q-90 147 -172 258h332q38 -85 159 -283q120 -198 154 -257l217 364q49 82 99 176h307q-8 -12 -56 -83t-81 -124l-359 -571v-283q1 -184 7 -315h-285q4 213 4 315z" glyph-name="Yacute" horiz-adv-x="1292" unicode="Ý"/><glyph d="M436 260v-47q0 -150 4 -213h-288q6 102 6 279v741q0 242 -6 356h288q-4 -90 -4 -151v-82h92q221 0 364.5 -118t143.5 -327t-139 -323.5t-373 -114.5h-88zM436 467h82q106 0 177 64.5t71 167t-69.5 167t-178.5 64.5h-82v-463z" glyph-name="Thorn" horiz-adv-x="1122" unicode="Þ"/><glyph d="M594 827q215 0 215 248q0 66 -57.5 114t-139.5 48t-143 -60.5t-61 -175.5v-921q0 -168 4 -225h-289q4 63 4 223v915q0 225 137 358.5t345 133.5t335 -111.5t127 -294.5q0 -115 -57.5 -211t-151.5 -125q133 -23 226.5 -113.5t93.5 -262.5t-129 -281t-316 -109 q-123 0 -202 39v263q51 -45 89 -58.5t106 -13.5t119.5 56t51.5 132q0 25 -8 43q-16 82 -86 139.5t-172 57.5q-61 0 -92 -10v204q16 -2 51 -2z" glyph-name="germandbls" horiz-adv-x="1245" unicode="ß"/><glyph d="M482 993q224 0 320.5 -109.5t96.5 -340.5v-221q0 -203 41 -322h-258l-12 104q-106 -127 -287 -127q-137 0 -224 84t-87 224q0 190 158 255.5t417 65.5v29q0 72 -57.5 115t-163.5 43t-223 -72q-42 93 -84 180q139 92 363 92zM326 291q0 -59 37 -94t89 -35t107 25.5 t92 66.5v176l-141 -6q-86 -4 -135 -39t-49 -94zM387 1096l-237 325h270q14 -27 104 -167t101 -158h-238z" glyph-name="agrave" horiz-adv-x="1019" unicode="à"/><glyph d="M332 1096l207 325h270q-17 -25 -119 -163t-121 -162h-237zM482 993q224 0 321 -109q96 -110 96 -341v-221q0 -203 41 -322h-258l-12 104q-106 -127 -287 -127q-137 0 -224 84t-87 224q0 188 171 261q140 60 404 60v29q0 72 -57 115t-164 43t-223 -72q-42 93 -84 180 q139 92 363 92zM326 291q0 -59 38 -94t89 -35t106 26t92 66v176l-141 -6q-86 -4 -135 -39t-49 -94z" glyph-name="aacute" horiz-adv-x="1019" unicode="á"/><glyph d="M506 1245l-109 -149h-204l274 334h82q18 -25 139 -167t139 -167h-215zM482 993q224 0 321 -109q96 -110 96 -341v-221q0 -203 41 -322h-258l-12 104q-106 -127 -287 -127q-137 0 -224 84t-87 224q0 188 171 261q140 60 404 60v29q0 72 -57 115t-164 43t-223 -72 q-42 93 -84 180q139 92 363 92zM326 291q0 -59 38 -94t89 -35t106 26t92 66v176l-141 -6q-86 -4 -135 -39t-49 -94z" glyph-name="acircumflex" horiz-adv-x="1019" unicode="â"/><glyph d="M389 1354q61 0 131 -43t103 -43q53 0 57 73h151q-2 -89 -48 -167t-133 -77q-86 1 -150 43t-92 42q-4 0 -17 -4q-41 -11 -43 -70h-162q2 90 52 168t151 78zM482 993q224 0 321 -109q96 -110 96 -341v-221q0 -203 41 -322h-258l-12 104q-106 -127 -287 -127q-137 0 -224 84 t-87 224q0 188 171 261q140 60 404 60v29q0 72 -57 115t-164 43t-223 -72q-42 93 -84 180q139 92 363 92zM326 291q0 -59 38 -94t89 -35t106 26t92 66v176l-141 -6q-86 -4 -135 -39t-49 -94z" glyph-name="atilde" horiz-adv-x="1019" unicode="ã"/><glyph d="M482 993q224 0 320.5 -109.5t96.5 -340.5v-221q0 -203 41 -322h-258l-12 104q-106 -127 -287 -127q-137 0 -224 84t-87 224q0 190 158 255.5t417 65.5v29q0 72 -57.5 115t-163.5 43t-223 -72q-42 93 -84 180q139 92 363 92zM326 291q0 -59 37 -94t89 -35t107 25.5 t92 66.5v176l-141 -6q-86 -4 -135 -39t-49 -94zM162 1231q0 55 40 95t96 40t96 -40t40 -95t-40 -95t-96 -40t-96 40t-40 95zM588 1231q0 55 41 95t96 40t95 -40t40 -95t-40 -95t-95 -40t-96 40t-41 95z" glyph-name="adieresis" horiz-adv-x="1019" unicode="ä"/><glyph d="M482 993q224 0 320.5 -109.5t96.5 -340.5v-221q0 -203 41 -322h-258l-12 104q-106 -127 -287 -127q-137 0 -224 84t-87 224q0 190 158 255.5t417 65.5v29q0 72 -57.5 115t-163.5 43t-223 -72q-42 93 -84 180q139 92 363 92zM326 291q0 -59 37 -94t89 -35t107 25.5 t92 66.5v176l-141 -6q-86 -4 -135 -39t-49 -94zM297 1292q0 84 61.5 140.5t152.5 56.5t153.5 -56.5t62.5 -139.5t-62.5 -140t-153.5 -57t-152.5 56t-61.5 140zM436 1292.5q0 -32.5 20.5 -57.5t54.5 -25t55.5 22.5t21.5 57.5t-21.5 57.5t-54.5 22.5t-54.5 -22.5t-21.5 -55z " glyph-name="aring" horiz-adv-x="1019" unicode="å"/><glyph d="M463 993q207 0 297 -119q132 127 340 127t319 -137t111 -315q0 -66 -10 -107h-654q14 -250 324 -245q127 2 283 84v-203q-150 -92 -340 -92q-277 0 -396 145q-55 -66 -147 -110t-218 -44t-213 84t-87 220q0 197 156.5 261t408.5 64v29q0 74 -52.5 116t-131.5 42 q-129 0 -250 -72q-42 93 -84 180q137 92 344 92zM326 285q0 -55 37 -89t93 -34t112 27.5t91 72.5q-27 43 -26 168l-123 -6q-184 -10 -184 -139zM1080 799q-97 0 -154.5 -64.5t-65.5 -140.5h424q-2 90 -54.5 147.5t-149.5 57.5z" glyph-name="ae" horiz-adv-x="1552" unicode="æ"/><glyph d="M780 -270q0 -101 -74 -153t-169 -52t-168 24q6 69 6 134q66 -27 114 -27q86 0 99 53q4 12 4 19q0 70 -119 69q-40 0 -63 -6l102 211h141q-8 -14 -22 -44t-23 -44q172 -29 172 -184zM614 211q-124 0 -205 78q-81 77 -81 195t85 198t214 80t231 -70v252q-127 47 -254 47 q-227 0 -382 -144q-154 -143 -154 -361t154 -358t380 -140q143 0 260 47v244q-124 -68 -248 -68z" glyph-name="ccedilla" horiz-adv-x="978" unicode="ç"/><glyph d="M586 -16q-238 0 -378 137t-140 360t123 367.5t347 144.5t335.5 -136t111.5 -316q0 -44 -10 -105h-653q16 -241 294 -241q140 0 312 86v-205q-156 -92 -342 -92zM534 788q-95 0 -151.5 -60t-67.5 -140h422q-2 90 -55 145t-148 55zM399 1096l-237 325h270 q14 -27 104.5 -167t100.5 -158h-238z" glyph-name="egrave" horiz-adv-x="1044" unicode="è"/><glyph d="M821 1421q-28 -43 -239 -325h-238l207 325h270zM586 -16q-238 0 -378 137t-140 360t123 368q123 144 347 144t336 -136t111 -316q0 -44 -10 -105h-653q16 -241 294 -241q140 0 312 86v-205q-156 -92 -342 -92zM534 788q-96 0 -152 -60t-67 -140h422q-2 90 -55 145 t-148 55z" glyph-name="eacute" horiz-adv-x="1044" unicode="é"/><glyph d="M518 1245l-108 -149h-205l274 334h82q18 -25 139 -167t140 -167h-215zM586 -16q-238 0 -378 137t-140 360t123 368q123 144 347 144t336 -136t111 -316q0 -44 -10 -105h-653q16 -241 294 -241q140 0 312 86v-205q-156 -92 -342 -92zM534 788q-96 0 -152 -60t-67 -140h422 q-2 90 -55 145t-148 55z" glyph-name="ecircumflex" horiz-adv-x="1044" unicode="ê"/><glyph d="M586 -16q-238 0 -378 137t-140 360t123 367.5t347 144.5t335.5 -136t111.5 -316q0 -44 -10 -105h-653q16 -241 294 -241q140 0 312 86v-205q-156 -92 -342 -92zM534 788q-95 0 -151.5 -60t-67.5 -140h422q-2 90 -55 145t-148 55zM174 1231q0 55 40 95t96 40t96 -40 t40 -95t-40 -95t-96 -40t-96 40t-40 95zM600 1231q0 55 41 95t96.5 40t95 -40t39.5 -95t-39.5 -95t-95 -40t-96.5 40t-41 95z" glyph-name="edieresis" horiz-adv-x="1044" unicode="ë"/><glyph d="M141 207v553q0 137 -10 213h285q-6 -80 -6 -207v-559q0 -139 6 -207h-283q8 68 8 207zM150 1075l-238 326h270q14 -27 104.5 -167t100.5 -159h-237z" glyph-name="igrave" horiz-adv-x="546" unicode="ì"/><glyph d="M571 1401q-47 -73 -239 -326h-238l207 326h270zM141 207v553q0 137 -10 213h285q-6 -80 -6 -207v-559q0 -139 6 -207h-283q8 68 8 207z" glyph-name="iacute" horiz-adv-x="546" unicode="í"/><glyph d="M268 1225l-108 -150h-205l274 334h82q17 -25 139 -167t140 -167h-215zM141 207v553q0 137 -10 213h285q-6 -80 -6 -207v-559q0 -139 6 -207h-283q8 68 8 207z" glyph-name="icircumflex" horiz-adv-x="546" unicode="î"/><glyph d="M141 207v553q0 137 -10 213h285q-6 -80 -6 -207v-559q0 -139 6 -207h-283q8 68 8 207zM-76 1210.5q0 55.5 40 95.5t96 40t96.5 -40t40.5 -95.5t-40.5 -95.5t-96.5 -40t-96 40t-40 95.5zM350 1210.5q0 55.5 41 95.5t96.5 40t95.5 -40t40 -95.5t-40 -95.5t-95.5 -40 t-96.5 40t-41 95.5z" glyph-name="idieresis" horiz-adv-x="546" unicode="ï"/><glyph d="M1071 567q0 -266 -142.5 -423.5t-356.5 -157.5t-356 143t-142 348t125 336t302 131t271 -110q2 2 4 2q-31 190 -182 309l-246 -129l-59 110q29 16 89 47t91 48q-123 55 -258 67l25 209q268 -20 471 -151q69 34 208 108q41 -74 62 -108q-18 -8 -76.5 -40t-91.5 -49 q262 -252 262 -690zM571.5 213q102.5 0 170 81t67.5 196t-66.5 189.5t-168.5 74.5t-171 -78t-69 -192.5t67.5 -192.5t170 -78z" glyph-name="eth" horiz-adv-x="1157" unicode="ð"/><glyph d="M467 1352q61 0 131 -43t102 -43q53 0 58 73h151q-2 -89 -48 -167t-133 -77q-86 1 -150 43t-93 42q-4 0 -16 -4q-41 -11 -43 -70h-162q2 90 52 168t151 78zM788 242v342q0 88 -49 136t-125 48q-143 0 -213 -152v-374q0 -178 5 -242h-275q6 98 6 242v577h-100q4 6 18 40 t31 73q16 39 16 41h291q8 -48 8 -123q113 141 306 141q348 0 348 -446v-307q0 -178 6 -238h-277q4 70 4 242z" glyph-name="ntilde" horiz-adv-x="1177" unicode="ñ"/><glyph d="M74 488q0 210 146.5 356.5t353 146.5t351 -148.5t144.5 -359.5t-146.5 -354t-354.5 -143t-351 146t-143 356zM334 482q0 -110 67.5 -189.5t170 -79.5t170 80t67.5 194.5t-68.5 193.5t-170.5 79t-169 -84t-67 -194zM449 1094l-238 325h270q14 -27 104.5 -167t100.5 -158 h-237z" glyph-name="ograve" horiz-adv-x="1142" unicode="ò"/><glyph d="M393 1094l207 325h270q-16 -25 -118 -163t-121 -162h-238zM74 488q0 210 146 356t353 147q207 0 351 -148q144 -147 145 -359q0 -212 -146 -355q-147 -143 -355 -143t-351 146t-143 356zM569 760q-103 0 -169 -84t-66 -194t68 -190t169 -79q102 0 170 80q68 81 68 195 t-69 193t-171 79z" glyph-name="oacute" horiz-adv-x="1142" unicode="ó"/><glyph d="M567 1243l-108 -149h-205l274 333h82q18 -25 140 -167t139 -166h-215zM74 488q0 210 146 356t353 147q207 0 351 -148q144 -147 145 -359q0 -212 -146 -355q-147 -143 -355 -143t-351 146t-143 356zM569 760q-103 0 -169 -84t-66 -194t68 -190t169 -79q102 0 170 80 q68 81 68 195t-69 193t-171 79z" glyph-name="ocircumflex" horiz-adv-x="1142" unicode="ô"/><glyph d="M451 1352q61 0 131 -43t102 -43q53 0 57 73h152q-2 -89 -48 -167t-133 -77q-88 1 -152 43t-91 42q-4 0 -16 -4q-41 -11 -43 -70h-162q2 90 52 168t151 78zM74 488q0 210 146 356t353 147q207 0 351 -148q144 -147 145 -359q0 -212 -146 -355q-147 -143 -355 -143 t-351 146t-143 356zM569 760q-103 0 -169 -84t-66 -194t68 -190t169 -79q102 0 170 80q68 81 68 195t-69 193t-171 79z" glyph-name="otilde" horiz-adv-x="1142" unicode="õ"/><glyph d="M74 488q0 210 146.5 356.5t353 146.5t351 -148.5t144.5 -359.5t-146.5 -354t-354.5 -143t-351 146t-143 356zM334 482q0 -110 67.5 -189.5t170 -79.5t170 80t67.5 194.5t-68.5 193.5t-170.5 79t-169 -84t-67 -194zM223 1229q0 55 40 95t96 40t96.5 -40t40.5 -95t-40 -95 t-96 -40t-96.5 40t-40.5 95zM649 1229q0 55 41 95t96.5 40t95.5 -40t40 -95t-40 -95t-95.5 -40t-96.5 40t-41 95z" glyph-name="odieresis" horiz-adv-x="1142" unicode="ö"/><glyph d="M96 492v208h944v-208h-944zM412 221.5q0 65.5 45 111.5t110.5 46t111.5 -46t46 -111.5t-47 -112t-110.5 -46.5t-109.5 46.5t-46 112zM412 980q0 64 46 110.5t110 46.5t110.5 -46.5t46.5 -109.5t-47 -110.5t-110.5 -47.5t-109.5 46.5t-46 110.5z" glyph-name="divide" horiz-adv-x="1138" unicode="÷"/><glyph d="M1067 479q0 -205 -145.5 -349t-352.5 -144q-170 0 -297 94q-25 -29 -82 -90h-129q94 102 142 155q-129 141 -129 347t146.5 352.5t348.5 146.5q166 0 295 -98q53 57 80 88h127l-57 -63q-58 -62 -80 -89q133 -145 133 -350zM556 760q-90 0 -157 -79t-67 -180t39 -167 q249 285 334 379q-59 47 -149 47zM569 211q102 0 171 80t69 180t-41 170q-171 -189 -336 -381q66 -49 137 -49z" glyph-name="oslash" horiz-adv-x="1142" unicode="ø"/><glyph d="M401 584q0 -209 32 -296t134 -87q143 0 183 155v432q0 131 -5 185h281q-6 -76 -6 -180v-582q0 -127 20 -211h-237q-4 23 -14.5 68t-14.5 65q-84 -147 -282 -147q-162 0 -261.5 102t-99.5 313v418h-96l63 154h308q-4 -135 -5 -205v-184zM442 1075l-237 326h270 q14 -27 104.5 -167t100.5 -159h-238z" glyph-name="ugrave" horiz-adv-x="1132" unicode="ù"/><glyph d="M864 1401l-239 -326h-238l207 326h270zM401 584q0 -209 32 -296t134 -87q143 0 183 155v432q0 131 -5 185h281q-6 -76 -6 -180v-582q0 -127 20 -211h-237q-4 23 -15 68q-10 45 -14 65q-84 -147 -282 -147q-162 0 -262 102q-99 102 -99 313v418h-96l63 154h308 q-4 -135 -5 -205v-184z" glyph-name="uacute" horiz-adv-x="1132" unicode="ú"/><glyph d="M561 1225l-108 -150h-205l274 334h82q18 -25 139 -167t140 -167h-215zM401 584q0 -209 32 -296t134 -87q143 0 183 155v432q0 131 -5 185h281q-6 -76 -6 -180v-582q0 -127 20 -211h-237q-4 23 -15 68q-10 45 -14 65q-84 -147 -282 -147q-162 0 -262 102q-99 102 -99 313 v418h-96l63 154h308q-4 -135 -5 -205v-184z" glyph-name="ucircumflex" horiz-adv-x="1132" unicode="û"/><glyph d="M401 584q0 -209 32 -296t134 -87q143 0 183 155v432q0 131 -5 185h281q-6 -76 -6 -180v-582q0 -127 20 -211h-237q-4 23 -14.5 68t-14.5 65q-84 -147 -282 -147q-162 0 -261.5 102t-99.5 313v418h-96l63 154h308q-4 -135 -5 -205v-184zM217 1210.5q0 55.5 40 95.5t96 40 t96 -40t40 -95.5t-39.5 -95.5t-95.5 -40t-96.5 40t-40.5 95.5zM643 1210.5q0 55.5 41 95.5t96.5 40t95 -40t39.5 -95.5t-39.5 -95.5t-95 -40t-96.5 40t-41 95.5z" glyph-name="udieresis" horiz-adv-x="1132" unicode="ü"/><glyph d="M283 -403h-187l25 213q119 0 153 12q61 8 148 215q6 12 8 18q-12 29 -117.5 258.5t-197.5 431t-107 228.5h316q16 -48 111 -286t132 -335q10 29 56.5 145.5t82.5 211t85 264.5h296q-186 -414 -319 -732q-133 -319 -152.5 -361t-58.5 -107.5t-99.5 -120.5t-174.5 -55z M848 1401l-240 -326h-237l207 326h270z" glyph-name="yacute" horiz-adv-x="1097" unicode="ý"/><glyph d="M399 -252q0 -129 7 -209h-279q4 57 4 209v1532q0 131 -6 207h278q-4 -143 -4 -230v-385q115 115 297 115t305 -139t123 -351t-127 -359.5t-311 -147.5t-287 92v-334zM608 207q115 0 182.5 81.5t67.5 201.5t-68.5 198t-179.5 78q-49 0 -111.5 -24.5t-99.5 -59.5v-379 q39 -41 97.5 -68.5t111.5 -27.5z" glyph-name="thorn" horiz-adv-x="1214" unicode="þ"/><glyph d="M201 1210q0 56 40 96t96 40t96 -40t40 -96t-40 -95q-40 -40 -96 -40t-96 40t-40 95zM627 1210q0 56 41 96t96 40t95 -40t40 -96t-40 -95q-40 -40 -95 -40t-96 40t-41 95zM96 -403l25 213q119 0 153 12q61 8 148 215q6 12 8 18q-12 29 -118 258q-105 229 -197 431 t-107 229h316q16 -48 111 -286t132 -335q10 29 90 232t134 389h296q-186 -414 -319 -732q-132 -319 -152 -361t-59 -108t-73 -96q-89 -81 -201 -79h-187z" glyph-name="ydieresis" horiz-adv-x="1097" unicode="ÿ"/><glyph d="M414 307l-123 -307h-279q80 158 172 367l453 1030h94l477 -1061q59 -135 168 -336h-319q-8 23 -123 307h-520zM848 512l-178 451l-174 -451h352zM1006 1458h-668v170h668v-170z" glyph-name="Amacron" unicode="Ā"/><glyph d="M482 993q224 0 320.5 -109.5t96.5 -340.5v-221q0 -203 41 -322h-258l-12 104q-106 -127 -287 -127q-137 0 -224 84t-87 224q0 190 158 255.5t417 65.5v29q0 72 -57.5 115t-163.5 43t-223 -72q-42 93 -84 180q139 92 363 92zM326 291q0 -59 37 -94t89 -35t107 25.5 t92 66.5v176l-141 -6q-86 -4 -135 -39t-49 -94zM834 1122h-668v170h668v-170z" glyph-name="amacron" horiz-adv-x="1019" unicode="ā"/><glyph d="M693 1714q48 0 81 31t37 84h180q-4 -125 -90 -207t-209 -82t-208 83t-89 206h183q2 -53 34 -84t81 -31zM414 307l-123 -307h-279q80 158 172 367l453 1030h94l477 -1061q59 -135 168 -336h-319q-8 23 -123 307h-520zM848 512l-178 451l-174 -451h352z" glyph-name="Abreve" unicode="Ă"/><glyph d="M508 1096q-123 0 -208 82t-89 206h182q2 -53 35 -84q33 -30 81 -30t81 30t37 84h180q-4 -124 -90 -206t-209 -82zM482 993q224 0 321 -109q96 -110 96 -341v-221q0 -203 41 -322h-258l-12 104q-106 -127 -287 -127q-137 0 -224 84t-87 224q0 188 171 261q140 60 404 60 v29q0 72 -57 115t-164 43t-223 -72q-42 93 -84 180q139 92 363 92zM326 291q0 -59 38 -94t89 -35t106 26t92 66v176l-141 -6q-86 -4 -135 -39t-49 -94z" glyph-name="abreve" horiz-adv-x="1019" unicode="ă"/><glyph d="M948 -307q0 156 250 311q59 0 178 -4q-102 -66 -149 -121t-47 -119q0 -16 2 -24q12 -59 94 -60q51 0 98 29q6 -43 21 -151q-102 -60 -212 -60q-111 0 -173 56t-62 143zM414 307l-123 -307h-279q80 158 172 367l453 1030h94l477 -1061q59 -135 168 -336h-319 q-8 23 -123 307h-520zM848 512l-178 451l-174 -451h352z" glyph-name="Aogonek" unicode="Ą"/><glyph d="M512 -307q0 156 250 311q59 0 178 -4q-102 -66 -149 -121t-48 -119q0 -16 2 -24q12 -59 95 -60q51 0 98 29q6 -43 20 -151q-102 -60 -212 -60t-172 55q-62 56 -62 144zM482 993q224 0 321 -109q96 -110 96 -341v-221q0 -203 41 -322h-258l-12 104q-106 -127 -287 -127 q-137 0 -224 84t-87 224q0 188 171 261q140 60 404 60v29q0 72 -57 115t-164 43t-223 -72q-42 93 -84 180q139 92 363 92zM326 291q0 -59 38 -94t89 -35t106 26t92 66v176l-141 -6q-86 -4 -135 -39t-49 -94z" glyph-name="aogonek" horiz-adv-x="1019" unicode="ą"/><glyph d="M938 1870q-41 -65 -240 -326h-237l207 326h270zM836 217q196 0 331 86v-274q-141 -51 -338 -52q-329 0 -533 199t-204 508t208 513t529 204q158 0 330 -58v-282q-121 96 -321 96t-332 -136q-131 -136 -131 -336t133 -334q132 -134 328 -134z" glyph-name="Cacute" horiz-adv-x="1280" unicode="Ć"/><glyph d="M311 1094l207 325h270q-16 -25 -118 -163t-121 -162h-238zM602 -12q-227 0 -381 140t-153 357q0 217 154 362q155 144 382 144q127 0 254 -47v-252q-102 70 -231 70t-214 -80t-85 -198t81 -196t205 -77q124 0 248 68v-244q-117 -47 -260 -47z" glyph-name="cacute" horiz-adv-x="978" unicode="ć"/><glyph d="M635 1694l-109 -150h-204l274 334h82q18 -25 139 -167t139 -167h-215zM836 217q196 0 331 86v-274q-141 -51 -338 -52q-329 0 -533 199t-204 508t208 513t529 204q158 0 330 -58v-282q-121 96 -321 96t-332 -136q-131 -136 -131 -336t133 -334q132 -134 328 -134z" glyph-name="Ccircumflex" horiz-adv-x="1280" unicode="Ĉ"/><glyph d="M485 1243l-108 -149h-205l274 333h82q18 -25 140 -167t139 -166h-215zM602 -12q-227 0 -381 140t-153 357q0 217 154 362q155 144 382 144q127 0 254 -47v-252q-102 70 -231 70t-214 -80t-85 -198t81 -196t205 -77q124 0 248 68v-244q-117 -47 -260 -47z" glyph-name="ccircumflex" horiz-adv-x="978" unicode="ĉ"/><glyph d="M834 217q194 0 333 86v-274q-147 -51 -356 -52q-313 0 -516 201t-203 507t209 511t516 205q166 0 342 -58v-282q-123 96 -323 96t-330.5 -136t-130.5 -335t132.5 -334t326.5 -135zM674 1656.5q0 61.5 42 101.5t102 40t101.5 -40t41.5 -100t-41.5 -101t-101.5 -41 t-102 39.5t-42 101z" glyph-name="Cdotaccent" horiz-adv-x="1280" unicode="Ċ"/><glyph d="M608 -12q-233 0 -386.5 140t-153.5 357t153.5 359.5t382.5 142.5q127 0 254 -47v-252q-104 70 -233 70t-213 -79t-84 -195.5t82 -194.5t206 -78t246 68v-244q-117 -47 -254 -47zM449 1263q0 60 41.5 101t101 41t101.5 -41t42 -101t-41 -100.5t-101 -40.5t-102 40.5 t-42 100.5z" glyph-name="cdotaccent" horiz-adv-x="978" unicode="ċ"/><glyph d="M836 217q196 0 331 86v-274q-141 -51 -338 -52q-330 0 -533.5 199t-203.5 508t208 513t529 204q158 0 330 -58v-282q-121 96 -321 96t-331.5 -136t-131.5 -336t132.5 -334t328.5 -134zM827 1798h213l-278 -334h-82l-274 334h206l109 -149z" glyph-name="Ccaron" horiz-adv-x="1280" unicode="Č"/><glyph d="M602 -12q-227 0 -380.5 140t-153.5 357t154.5 361.5t381.5 144.5q127 0 254 -47v-252q-102 70 -231 70t-214 -80t-85 -198t80.5 -195.5t204.5 -77.5t249 68v-244q-117 -47 -260 -47zM594 1427h213l-279 -333h-82l-274 333h207l108 -149z" glyph-name="ccaron" horiz-adv-x="978" unicode="č"/><glyph d="M809 1853h213l-279 -333h-81l-275 333h207l108 -149zM621 0h-469q6 129 6 371v665q0 229 -6 340h471q297 0 495 -191t197 -493q1 -302 -203 -498q-204 -194 -491 -194zM436 1147v-918h156q198 0 320 130t122 331t-125 329t-319 128h-154z" glyph-name="Dcaron" horiz-adv-x="1411" unicode="Ď"/><glyph d="M1171 1085l37 388h228l-68 -388h-197zM1063 1251v-1056q0 -127 4 -183q-72 -6 -211 -18q-8 18 -25.5 56t-25.5 59q-104 -123 -270 -123q-213 0 -340 145t-127 359t127 357.5t337 143.5q143 0 271 -86v387h-111l66 152h315q-10 -123 -10 -193zM588 201q121 0 215 106v375 q-100 92 -222 92t-188.5 -82t-66.5 -212t70.5 -204.5t191.5 -74.5z" glyph-name="dcaron" horiz-adv-x="1198" unicode="ď"/><glyph d="M27 797h155v211q0 242 -6 368h473q289 0 490.5 -190.5t201.5 -495.5t-209.5 -497.5t-510.5 -192.5h-445q6 117 6 346v242h-155v209zM463 1147v-350h264v-209h-264v-359h155q195 0 319 129t124 331t-125 330t-320 128h-153z" glyph-name="Dcroat" horiz-adv-x="1435" unicode="Đ"/><glyph d="M1067 1235h88v-127h-88v-877q0 -147 2 -217q-139 -12 -211 -16q-16 37 -49 115q-100 -121 -293 -121t-318.5 143.5t-125.5 358.5t126 357t337 142q150 0 272 -86v201h-293v127h293v61h-111l64 152h317q-10 -78 -10 -213zM590 203q119 0 217 108v373q-100 92 -223 92 t-188.5 -81t-65.5 -211t70.5 -205.5t189.5 -75.5z" glyph-name="dcroat" horiz-adv-x="1198" unicode="đ"/><glyph d="M881 1460h-668v170h668v-170zM434 823h127q236 0 320 4v-233q-84 4 -320 4h-127v-369h176q240 0 320 4v-237q-80 4 -316 4h-462q6 66 6 346v682q0 217 -6 348h493q188 0 291 6l-43 -239q-78 4 -354 4h-105v-324z" glyph-name="Emacron" horiz-adv-x="1050" unicode="Ē"/><glyph d="M883 1145h-668v170h668v-170zM586 -16q-238 0 -378 137t-140 360t123 368q123 144 347 144t336 -136t111 -316q0 -44 -10 -105h-653q16 -241 294 -241q140 0 312 86v-205q-156 -92 -342 -92zM534 788q-96 0 -152 -60t-67 -140h422q-2 90 -55 145t-148 55z" glyph-name="emacron" horiz-adv-x="1044" unicode="ē"/><glyph d="M526 1659q45 0 82 31.5t39 81.5h180q-6 -123 -92 -205t-208 -82t-207 83t-89 204h183q2 -51 34.5 -82t77.5 -31zM434 823h127q236 0 320 4v-233q-84 4 -320 4h-127v-369h176q240 0 320 4v-237q-80 4 -316 4h-462q6 66 6 346v682q0 217 -6 348h493q188 0 291 6l-43 -239 q-78 4 -354 4h-105v-324z" glyph-name="Ebreve" horiz-adv-x="1050" unicode="Ĕ"/><glyph d="M588 -16q-240 0 -380 138t-140 364t124.5 373t346.5 147q115 0 205 -41t166.5 -143t76.5 -273q0 -46 -10 -107h-655q16 -245 294 -245q138 0 314 86v-205q-158 -94 -342 -94zM536 799q-97 0 -153.5 -64.5t-65.5 -140.5h420q-2 90 -53 147.5t-148 57.5zM531 1268 q48 0 81 30.5t37 83.5h180q-6 -125 -92 -206.5t-208 -81.5t-207 82.5t-89 205.5h183q2 -53 34.5 -83.5t80.5 -30.5z" glyph-name="ebreve" horiz-adv-x="1044" unicode="ĕ"/><glyph d="M434 823h127q236 0 320 4v-233q-84 4 -320 4h-127v-369h176q240 0 320 4v-237q-80 4 -316 4h-462q6 66 6 346v682q0 217 -6 348h493q188 0 291 6l-43 -239q-78 4 -354 4h-105v-324zM389 1667.5q0 61.5 41 101t101 39.5t102.5 -41t42.5 -100t-41 -100t-102.5 -41 t-102.5 40t-41 101.5z" glyph-name="Edotaccent" horiz-adv-x="1050" unicode="Ė"/><glyph d="M586 -16q-238 0 -378 137t-140 360t123 367.5t347 144.5t335.5 -136t111.5 -316q0 -44 -10 -105h-653q16 -241 294 -241q140 0 312 86v-205q-156 -92 -342 -92zM534 788q-95 0 -151.5 -60t-67.5 -140h422q-2 90 -55 145t-148 55zM387 1237q0 61 41 101t101 40t102.5 -41 t42.5 -100t-41 -100t-102.5 -41t-102.5 40t-41 101z" glyph-name="edotaccent" horiz-adv-x="1044" unicode="ė"/><glyph d="M434 823v324h105q276 0 354 -4l43 239q-102 -6 -291 -6h-493q6 -131 6 -348v-682q0 -281 -6 -346h462q236 0 316 -4v237q-80 -4 -320 -4h-176v369h127q236 0 320 -4v233q-84 -4 -320 -4h-127zM502 -311q0 162 250 317q106 0 178 -10q-102 -66 -149.5 -121t-47.5 -119 q0 -16 2 -24q12 -59 94 -60q51 0 99 29q6 -43 20 -152q-102 -59 -212 -59t-172 55.5t-62 143.5z" glyph-name="Eogonek" horiz-adv-x="1050" unicode="Ę"/><glyph d="M586 -16q-238 0 -378 137t-140 360t123 367.5t347 144.5t335.5 -136t111.5 -316q0 -44 -10 -105h-653q16 -241 294 -241q140 0 312 86v-205q-156 -92 -342 -92zM534 788q-95 0 -151.5 -60t-67.5 -140h422q-2 90 -55 145t-148 55zM498 -236q0 156 250 312q59 0 178 -4 q-197 -125 -197 -240q0 -16 2 -25q12 -59 94 -59q51 0 99 29q6 -43 20 -152q-102 -59 -212 -59t-172 55t-62 143z" glyph-name="eogonek" horiz-adv-x="1044" unicode="ę"/><glyph d="M434 823h127q236 0 320 4v-233q-84 4 -320 4h-127v-369h176q240 0 320 4v-237q-80 4 -316 4h-462q6 66 6 346v682q0 217 -6 348h493q188 0 291 6l-43 -239q-78 4 -354 4h-105v-324zM629 1860h213l-279 -334h-82l-274 334h207l108 -150z" glyph-name="Ecaron" horiz-adv-x="1050" unicode="Ě"/><glyph d="M627 1430h213l-279 -334h-82l-274 334h207l108 -150zM586 -16q-238 0 -378 137t-140 360t123 368q123 144 347 144t336 -136t111 -316q0 -44 -10 -105h-653q16 -241 294 -241q140 0 312 86v-205q-156 -92 -342 -92zM534 788q-96 0 -152 -60t-67 -140h422q-2 90 -55 145 t-148 55z" glyph-name="ecaron" horiz-adv-x="1044" unicode="ě"/><glyph d="M1233 297v-248q-186 -74 -397 -74q-328 0 -536 196t-208 511t209 516t549 201q178 0 340 -53v-269q-158 84 -330 84q-223 0 -354 -133t-131 -336t128 -342t331 -139q86 0 137 27v139q0 180 -6 264h274q-6 -143 -6 -344zM690 1692l-108 -150h-205l274 334h82 q18 -25 139 -167t140 -167h-215z" glyph-name="Gcircumflex" unicode="Ĝ"/><glyph d="M471 -451q-215 0 -338 41q29 97 68 195q98 -25 266 -25t229.5 72t61.5 252q-109 -98 -264 -98q-197 0 -323 136t-126 351t122 365.5t308 150.5q84 0 166 -31.5t127 -87.5v103h264q-4 -12 -20.5 -75.5t-18.5 -76.5l4 -710q0 -297 -125 -429.5t-401 -132.5zM560 778 q-120 0 -186.5 -86t-66.5 -213t64.5 -204.5t175.5 -77.5t209 90v389q-76 102 -196 102zM532 1241l-108 -149h-205l275 333h81q18 -25 139.5 -167t139.5 -166h-215z" glyph-name="gcircumflex" horiz-adv-x="1075" unicode="ĝ"/><glyph d="M693 1716q48 0 81 31t37 84h180q-4 -125 -90 -207t-209 -82t-208 83t-89 206h183q2 -53 34 -84t81 -31zM1233 297v-248q-186 -74 -397 -74q-328 0 -536 196t-208 511t209 516t549 201q178 0 340 -53v-269q-158 84 -330 84q-223 0 -354 -133t-131 -336t128 -342t331 -139 q86 0 137 27v139q0 180 -6 264h274q-6 -143 -6 -344z" glyph-name="Gbreve" unicode="Ğ"/><glyph d="M534 1092q-122 0 -207 82t-89 206h182q2 -53 35 -84q33 -30 81 -30t80 30t37 84h181q-4 -124 -90 -206q-88 -82 -210 -82zM471 -451q-215 0 -338 41q22 71 68 195q98 -25 266 -25t229 72t62 252q-109 -98 -264 -98q-197 0 -323 136t-126 351t122 366t308 150 q84 0 166 -32t127 -87v103h264q-13 -38 -39 -152l4 -710q0 -297 -125 -429t-401 -133zM560 778q-120 0 -186 -86t-67 -213q0 -127 65 -205q66 -78 176 -78t208 91v389q-76 102 -196 102z" glyph-name="gbreve" horiz-adv-x="1075" unicode="ğ"/><glyph d="M698 1656q0 60 42 100t102 40t101.5 -40t41.5 -100t-41 -100t-101 -40t-102.5 40t-42.5 100zM1233 297v-248q-186 -74 -406 -74q-319 0 -527 197t-208 509t209 515t530 203q193 0 359 -53v-269q-162 84 -358 84t-326.5 -134t-130.5 -336t129 -341t330 -139q86 0 137 27 v139q0 180 -6 264h274q-6 -143 -6 -344z" glyph-name="Gdotaccent" unicode="Ġ"/><glyph d="M401 1263q0 60 42 101t101.5 41t100.5 -41t41 -101t-41 -100.5t-100.5 -40.5t-101.5 40.5t-42 100.5zM494 -451q-234 0 -361 41q29 97 68 195q105 -25 275 -25t226 78t56 246q-106 -98 -256 -98q-203 0 -330 134t-127 351t122 367.5t310 150.5q82 0 164 -31.5t127 -87.5 v103h264q-4 -12 -20.5 -75.5t-18.5 -76.5l4 -770q0 -248 -134.5 -375t-368.5 -127zM560 778q-120 0 -186.5 -87t-66.5 -213t64.5 -203.5t174.5 -77.5t210 90v389q-76 102 -196 102z" glyph-name="gdotaccent" horiz-adv-x="1075" unicode="ġ"/><glyph d="M1233 297v-248q-186 -74 -397 -74q-328 0 -536 196t-208 511t209 516t549 201q178 0 340 -53v-269q-158 84 -330 84q-223 0 -354 -133t-131 -336t128 -342t331 -139q86 0 137 27v139q0 180 -6 264h274q-6 -143 -6 -344zM725 -220q0 52 -18 87l251 6q12 -31 13 -72 q0 -117 -144 -256l-176 64q41 45 57.5 82t16.5 89z" glyph-name="Gcommaaccent" unicode="Ģ"/><glyph d="M471 -451q-215 0 -338 41q29 97 68 195q98 -25 266 -25t229.5 72t61.5 252q-109 -98 -264 -98q-197 0 -323 136t-126 351t122 365.5t308 150.5q84 0 166 -31.5t127 -87.5v103h264q-4 -12 -20.5 -75.5t-18.5 -76.5l4 -710q0 -297 -125 -429.5t-401 -132.5zM560 778 q-120 0 -186.5 -86t-66.5 -213t64.5 -204.5t175.5 -77.5t209 90v389q-76 102 -196 102z" glyph-name="gcommaaccent" horiz-adv-x="1075" unicode="ģ"/><glyph d="M733 1669l-108 -149h-205l274 333h82q18 -25 139 -167t140 -166h-215zM1040 831v201q0 213 -6 344h287q-6 -199 -6 -356v-797q0 -20 6 -223h-287q6 104 6 293v315h-606v-315q0 -213 6 -293h-286q4 78 4 301v719q0 276 -4 356h286q-6 -104 -6 -418v-127h606z" glyph-name="Hcircumflex" horiz-adv-x="1474" unicode="Ĥ"/><glyph d="M594 1714l-109 -149h-204l274 333h82q18 -24 139 -166t139 -167h-215zM135 1311h-94q20 49 61 151h310q-8 -68 -9 -207v-399q119 133 299 133t274 -117q93 -117 93 -325v-371q0 -109 6 -176h-282q6 94 6 289v209q0 272 -181 272q-139 0 -215 -154v-442q0 -45 7 -174h-281 q6 82 6 221v1090z" glyph-name="hcircumflex" horiz-adv-x="1198" unicode="ĥ"/><glyph d="M436 1176h602q0 123 -6 200h291q0 -106 -6 -200h121v-172h-121v-715q0 -147 6 -289h-291q6 102 6 293v307h-602v-307q0 -213 4 -293h-286q4 80 4 291v713h-121v172h121v86l-4 114h286l-4 -110v-90zM1038 1004h-602v-179h602v179z" glyph-name="Hbar" horiz-adv-x="1480" unicode="Ħ"/><glyph d="M133 1307h-94q41 102 61 151h310q-8 -68 -9 -207v-34h330v-127h-330v-238q121 135 301 135t272.5 -116.5t92.5 -325.5v-371q0 -113 6 -176h-282q6 78 6 250v332q0 88 -50.5 138t-124.5 50t-131 -43t-90 -111v-444q0 -43 7 -172h-281q6 80 6 219v873h-96v127h96v90z" glyph-name="hbar" horiz-adv-x="1150" unicode="ħ"/><glyph d="M440 991v-626q0 -272 4 -365h-286q6 129 6 365v626q0 244 -6 385h286q-4 -68 -4 -385zM171 1743q83 0 147 -42t100 -42q53 0 57 74h152q-2 -96 -49.5 -171t-126.5 -75t-159.5 42t-90.5 42q-54 0 -58 -74h-159q2 96 53 171t134 75z" glyph-name="Itilde" horiz-adv-x="602" unicode="Ĩ"/><glyph d="M141 207v553q0 137 -10 213h285q-6 -80 -6 -207v-559q0 -139 6 -207h-283q8 68 8 207zM379 1262q55 0 57 73h152q-2 -90 -47.5 -167.5t-133.5 -76.5q-87 1 -151 43t-92 42q-4 0 -17 -5q-41 -10 -43 -69h-161q2 90 49 162.5t153 83.5q61 0 131 -43t103 -43z" glyph-name="itilde" horiz-adv-x="0" unicode="ĩ"/><glyph d="M440 991v-626q0 -272 4 -365h-286q6 129 6 365v626q0 244 -6 385h286q-4 -68 -4 -385zM629 1477h-668v170h668v-170z" glyph-name="Imacron" horiz-adv-x="602" unicode="Ī"/><glyph d="M616 1124h-667v170h667v-170zM141 207v553q0 137 -10 213h285q-6 -80 -6 -207v-559q0 -139 6 -207h-283q8 68 8 207z" glyph-name="imacron" horiz-adv-x="546" unicode="ī"/><glyph d="M440 991v-626q0 -272 4 -365h-286q6 129 6 365v626q0 244 -6 385h286q-4 -68 -4 -385zM300 1661q46 0 82 31.5t38 81.5h180q-4 -125 -90 -207t-208 -82t-207 84t-89 205h180q2 -53 35 -83t79 -30z" glyph-name="Ibreve" horiz-adv-x="602" unicode="Ĭ"/><glyph d="M265 1268q46 0 82 31.5t38 80.5h180q-4 -123 -89 -204.5t-208 -81.5t-208 82.5t-89 203.5h181q2 -53 34.5 -82.5t78.5 -29.5zM141 207v553q0 137 -10 213h285q-6 -80 -6 -207v-559q0 -139 6 -207h-283q8 68 8 207z" glyph-name="ibreve" horiz-adv-x="546" unicode="ĭ"/><glyph d="M16 -307q0 156 250 311q59 0 178 -4q-102 -66 -149 -121t-47 -119q0 -16 2 -24q12 -59 94 -60q51 0 98 29q6 -43 21 -151q-102 -60 -212 -60q-111 0 -173 56t-62 143zM440 991v-626q0 -272 4 -365h-286q6 129 6 365v626q0 244 -6 385h286q-4 -68 -4 -385z" glyph-name="Iogonek" horiz-adv-x="602" unicode="Į"/><glyph d="M-12 -307q0 156 250 311q59 0 178 -4q-102 -66 -150 -121t-47 -119q0 -16 2 -24q12 -59 94 -60q51 0 99 29q6 -43 20 -151q-102 -60 -212 -60t-172 55q-62 56 -62 144zM141 207v553q0 152 -10 213h285q-6 -80 -6 -207v-559q0 -139 6 -207h-283q8 68 8 207zM133 1258 q0 62 43 106q44 44 106 43q62 0 105 -43q43 -44 43 -106t-43 -105t-105 -43t-106 43q-43 43 -43 105z" glyph-name="iogonek" horiz-adv-x="546" unicode="į"/><glyph d="M440 991v-626q0 -272 4 -365h-286q6 129 6 365v626q0 244 -6 385h286q-4 -68 -4 -385zM160 1656.5q0 61.5 41 101.5t101 40t101 -41t41 -100t-41 -100t-101 -41t-101 39.5t-41 101z" glyph-name="Idotaccent" horiz-adv-x="602" unicode="İ"/><glyph d="M141 207v553q0 137 -10 213h285q-6 -80 -6 -207v-559q0 -139 6 -207h-283q8 68 8 207z" glyph-name="dotlessi" horiz-adv-x="546" unicode="ı"/><glyph d="M438 991v-626q0 -272 6 -365h-288q6 129 6 365v626q0 244 -6 385h288q-6 -102 -6 -385zM1026 1020v-993q0 -227 -117.5 -364.5t-330.5 -137.5q-100 0 -199 24v250q72 -41 169 -41t148.5 61.5t51.5 168.5v1032q0 266 -5 356h287q-4 -131 -4 -356z" glyph-name="IJ" horiz-adv-x="1185" unicode="Ĳ"/><glyph d="M139 207v553q0 152 -10 213h285q-6 -80 -6 -207v-559q0 -139 6 -207h-283q8 68 8 207zM131 1258q0 62 43.5 105.5t105.5 43.5t105 -43.5t43 -105.5t-43 -105t-105 -43t-105.5 43t-43.5 105zM651 1258q0 62 43.5 105.5t105.5 43.5t105 -43.5t43 -105.5t-43 -105t-105 -43 t-105.5 43t-43.5 105zM936 762v-647q0 -429 -128 -501.5t-235 -72.5h-184v219h119q160 0 160 260v738q0 141 -9 215h283q-6 -74 -6 -211z" glyph-name="ij" horiz-adv-x="0" unicode="ĳ"/><glyph d="M307 1669l-108 -149h-205l274 333h82q18 -25 139 -167t140 -166h-215zM463 1020v-993q0 -227 -118 -365t-331 -137q-100 0 -198 24v250q72 -41 169 -41t148 62t51 168v1032q0 266 -6 356h289q-4 -131 -4 -356z" glyph-name="Jcircumflex" horiz-adv-x="622" unicode="Ĵ"/><glyph d="M418 762v-647q0 -429 -128 -501.5t-235 -72.5h-184v219h119q160 0 160 260v738q0 141 -9 215h283q-6 -74 -6 -211zM276 1225l-108 -150h-205l275 334h81q18 -25 139.5 -167t139.5 -167h-215z" glyph-name="jcircumflex" horiz-adv-x="563" unicode="ĵ"/><glyph d="M436 348q0 -244 4 -348h-288q4 88 4 348v680q0 254 -4 348h288q-4 -96 -4 -346v-289l305 400q49 63 166 235h312q-25 -29 -70 -92t-68 -90l-374 -475l399 -483q90 -111 203 -236h-375q-82 121 -131 180l-367 451v-283zM807 -199q0 -117 -143 -256l-177 64q41 45 57.5 82 t16.5 89t-18 87l252 6q12 -31 12 -72z" glyph-name="Kcommaaccent" horiz-adv-x="1323" unicode="Ķ"/><glyph d="M397 203q0 -141 4 -203h-274q6 70 6 211v1100h-96q20 43 61 151h303q-4 -98 -4 -207v-682l377 400h322q-293 -281 -457 -445q25 -27 209 -229.5t280 -298.5h-340q-66 72 -195.5 211t-195.5 211v-219z" glyph-name="kcommaaccent" horiz-adv-x="1140" unicode="ķ"/><glyph d="M178 1520l207 325h270q-16 -25 -118 -163t-121 -162h-238zM434 233h213q184 0 320 5v-242q-84 4 -326 4h-489q6 229 6 371v633q0 229 -6 372h286q-4 -168 -4 -196v-947z" glyph-name="Lacute" horiz-adv-x="1021" unicode="Ĺ"/><glyph d="M98 1565l207 325h270q-16 -25 -118 -163t-121 -162h-238zM393 1268v-1061q0 -166 6 -207h-268q4 41 4 207v1104h-100l63 151h303q-8 -40 -8 -194z" glyph-name="lacute" horiz-adv-x="552" unicode="ĺ"/><glyph d="M434 233h213q184 0 320 5v-242q-84 4 -326 4h-489q6 229 6 371v633q0 229 -6 372h286q-4 -168 -4 -196v-947zM444 -133l252 6q12 -31 13 -72q0 -117 -144 -256l-176 64q41 45 57 82t16 89t-18 87z" glyph-name="Lcommaaccent" horiz-adv-x="1021" unicode="Ļ"/><glyph d="M393 1268v-1061q0 -166 6 -207h-268q4 41 4 207v1104h-100l63 151h303q-8 -40 -8 -194z" glyph-name="lcommaaccent" horiz-adv-x="552" unicode="ļ"/><glyph d="M950 1425q-19 -123 -67 -389h-197l37 389h227zM434 233h213q184 0 320 5v-242q-84 4 -326 4h-489q6 229 6 371v633q0 229 -6 372h286q-4 -168 -4 -196v-947z" glyph-name="Lcaron" horiz-adv-x="1021" unicode="Ľ"/><glyph d="M705 1085h-197l37 388h227zM393 1266v-1061q0 -168 6 -207h-270q6 59 6 207v1102h-100q41 102 61 151h303q-6 -38 -6 -192z" glyph-name="lcaron" horiz-adv-x="552" unicode="ľ"/><glyph d="M434 233h213q184 0 320 5v-242q-84 4 -326 4h-489q6 229 6 371v633q0 229 -6 372h286q-4 -168 -4 -196v-947zM625 835q0 60 43 103t103 43t103.5 -43t43.5 -103t-43.5 -103.5t-103.5 -43.5t-103 43.5t-43 103.5z" glyph-name="Ldot" horiz-adv-x="1021" unicode="Ŀ"/><glyph d="M393 1268v-1061q0 -166 6 -207h-270q6 61 6 207v1104h-100l61 151h303q-6 -40 -6 -194zM514 845q0 60 43 103t103 43t103.5 -43t43.5 -103t-43.5 -103.5t-103.5 -43.5t-103 43.5t-43 103.5z" glyph-name="ldot" horiz-adv-x="552" unicode="ŀ"/><glyph d="M434 233h213q184 0 320 5v-242q-84 4 -326 4h-489q6 229 6 371v127l-97 -43v225l97 43v281q0 229 -6 372h286q-4 -168 -4 -196v-334l402 178v-225l-402 -178v-388z" glyph-name="Lslash" horiz-adv-x="1021" unicode="Ł"/><glyph d="M393 1268v-445l82 37v-225l-82 -37v-391q0 -166 6 -207h-268q4 41 4 207v278l-74 -30v225l74 31v600h-100l63 151h303q-8 -41 -8 -194z" glyph-name="lslash" horiz-adv-x="552" unicode="ł"/><glyph d="M422 287q0 -170 6 -287h-276q4 80 4 293v731q0 240 -4 373h98l797 -875v502q0 227 -7 352h283q-8 -166 -8 -346v-737q0 -213 4 -305h-100l-797 882v-583zM1034 1866l-239 -326h-238l207 326h270z" glyph-name="Nacute" horiz-adv-x="1472" unicode="Ń"/><glyph d="M788 242v342q0 88 -49 136t-125 48q-143 0 -213 -152v-374q0 -178 5 -242h-275q6 98 6 242v577h-100q7 10 36 81t29 73h291q8 -48 8 -123q113 141 306 141q348 0 348 -446v-307q0 -178 6 -238h-277q4 70 4 242zM887 1419q-174 -241 -240 -325h-237l206 325h271z" glyph-name="nacute" horiz-adv-x="1177" unicode="ń"/><glyph d="M422 287q0 -170 6 -287h-276q4 80 4 293v731q0 240 -4 373h98l797 -875v502q0 227 -7 352h283q-8 -166 -8 -346v-737q0 -213 4 -305h-100l-797 882v-583zM936 -199q0 -117 -143 -256l-177 64q39 45 56.5 82t17.5 89t-18 87l252 6q12 -31 12 -72z" glyph-name="Ncommaaccent" horiz-adv-x="1472" unicode="Ņ"/><glyph d="M788 242v342q0 88 -49 136t-125 48q-143 0 -213 -152v-374q0 -178 5 -242h-275q6 98 6 242v577h-100q7 10 36 81t29 73h291q8 -48 8 -123q113 141 306 141q348 0 348 -446v-307q0 -178 6 -238h-277q4 70 4 242zM766 -199q0 -117 -143 -256l-177 64q39 45 56.5 82t17.5 89 t-18 87l252 6q12 -31 12 -72z" glyph-name="ncommaaccent" horiz-adv-x="1177" unicode="ņ"/><glyph d="M422 287q0 -170 6 -287h-276q4 80 4 293v731q0 240 -4 373h98l797 -875v502q0 227 -7 352h283q-8 -166 -8 -346v-737q0 -213 4 -305h-100l-797 882v-583zM840 1874h213l-279 -334h-82l-274 334h207l108 -150z" glyph-name="Ncaron" horiz-adv-x="1472" unicode="Ň"/><glyph d="M788 242v342q0 88 -49 136t-125 48q-143 0 -213 -152v-374q0 -178 5 -242h-275q6 98 6 242v577h-100q7 10 36 81t29 73h291q8 -48 8 -123q113 141 306 141q348 0 348 -446v-307q0 -178 6 -238h-277q4 70 4 242zM692 1427h213l-278 -333h-82l-275 333h207l109 -149z" glyph-name="ncaron" horiz-adv-x="1177" unicode="ň"/><glyph d="M887 -463q-111 0 -213 33v225q70 -39 168 -39q37 0 65 15q101 25 129.5 121.5t28.5 238.5q-109 123 -322 370t-321 369v-639q0 -133 6 -231h-276q4 80 4 293v731q0 240 -4 373h98q772 -850 797 -877v504q0 225 -7 352h283q-10 -156 -10 -346v-782l2 -273 q-2 -188 -125 -313t-303 -125z" glyph-name="Eng" horiz-adv-x="1472" unicode="Ŋ"/><glyph d="M788 63v521q0 74 -47 129t-129 55q-143 0 -213 -152v-374q0 -178 4 -242h-272q6 98 6 242v577h-100q25 51 65 154h291q0 -65 6 -125q117 139 303 139t268.5 -109.5t84.5 -334.5l2 -545q0 -134 -58.5 -228t-131 -132.5t-144.5 -38.5t-209 10l8 221l96 -6q170 0 170 239z " glyph-name="eng" horiz-adv-x="1177" unicode="ŋ"/><glyph d="M92 690q0 305 207 507t515 202t516 -205t208 -510t-207 -507t-516 -202t-516 205t-207 510zM375 687q0 -208 125 -345t315.5 -137t314 137t123.5 344t-124.5 345t-314.5 138t-314.5 -137t-124.5 -345z" glyph-name="Omacron" horiz-adv-x="1630" unicode="Ō"/><glyph d="M74 488q0 210 146.5 356.5t353 146.5t351 -148.5t144.5 -359.5t-146.5 -354t-354.5 -143t-351 146t-143 356zM334 482q0 -110 67.5 -189.5t170 -79.5t170 80t67.5 194.5t-68.5 193.5t-170.5 79t-169 -84t-67 -194zM907 1126h-667v170h667v-170z" glyph-name="omacron" horiz-adv-x="1142" unicode="ō"/><glyph d="M92 690q0 305 207 507t515 202t516 -206t208 -510t-207 -506t-516 -202t-516 205t-207 510zM375 687q0 -208 125 -345t315.5 -137t314 137t123.5 344t-124.5 345t-314.5 138t-314.5 -137t-124.5 -345zM814 1661q48 0 81 30.5t35 82.5h182q-6 -123 -92 -206t-208 -83 t-207 84t-89 205h182q2 -53 35 -83t81 -30z" glyph-name="Obreve" horiz-adv-x="1630" unicode="Ŏ"/><glyph d="M74 487q0 211 147 357.5t353 146.5t350.5 -148.5t144.5 -358.5t-145.5 -354t-353.5 -144t-352 145t-144 356zM334 482q0 -110 67.5 -189.5t170 -79.5t170 78.5t67.5 194.5t-68.5 195t-170.5 79t-169 -84t-67 -194zM574 1268q48 0 81 30.5t35 83.5h182q-6 -125 -92 -206.5 t-208 -81.5t-207 82.5t-89 205.5h183q2 -53 34.5 -83.5t80.5 -30.5z" glyph-name="obreve" horiz-adv-x="1142" unicode="ŏ"/><glyph d="M442 1542l189 326h254l-230 -326h-213zM834 1542l190 326h252q-164 -236 -229 -326h-213zM92 690q0 305 207 507t515 202t516 -205t208 -510t-207 -507t-516 -202t-516 205t-207 510zM375 687q0 -208 125 -345t315 -137t314 137t124 344t-125 345t-314 138t-314 -137 t-125 -345z" glyph-name="Ohungarumlaut" horiz-adv-x="1630" unicode="Ő"/><glyph d="M199 1094l188 325h254l-229 -325h-213zM590 1094l190 325h252q-164 -236 -229 -325h-213zM74 488q0 210 146 356t353 147q207 0 351 -148q144 -147 145 -359q0 -212 -146 -355q-147 -143 -355 -143t-351 146t-143 356zM569 760q-103 0 -169 -84t-66 -194t68 -190t169 -79 q102 0 170 80q68 81 68 195t-69 193t-171 79z" glyph-name="ohungarumlaut" horiz-adv-x="1142" unicode="ő"/><glyph d="M1278 0h-465q-311 0 -516 192.5t-205 495.5t205 495.5t516 192.5h492q178 0 276 6l-12 -239q-68 4 -281 4h-188v-324h125q236 0 321 4v-233q-86 4 -321 4h-125v-369h176q238 0 319 4v-237q-79 4 -317 4zM819 227v920q-201 0 -322.5 -126t-121.5 -332t127 -334t317 -128z " glyph-name="OE" horiz-adv-x="1708" unicode="Œ"/><glyph d="M1311 -16q-268 0 -389 180q-57 -84 -151.5 -131t-201.5 -47q-209 0 -353 145t-144 356t146.5 357.5t350.5 146.5q100 0 191.5 -46t152.5 -122q125 182 349 183q115 0 203.5 -41t165.5 -142.5t77 -273.5q0 -66 -10 -107h-654q16 -245 296 -245q140 0 311 86v-205 q-154 -94 -340 -94zM332 487q0 -113 68.5 -193.5t169.5 -80.5t169 78.5t68 194.5t-68.5 195t-170.5 79t-169 -80t-67 -193zM1259 799q-98 0 -154 -63.5t-65 -141.5h422q-2 90 -53.5 147.5t-149.5 57.5z" glyph-name="oe" horiz-adv-x="1785" unicode="œ"/><glyph d="M457 1520l207 325h270q-16 -25 -118 -163t-122 -162h-237zM436 532v-170q0 -244 6 -362h-290q6 80 6 365v667q0 272 -6 344h417q219 0 357 -107q137 -108 137 -311q0 -264 -246 -350l189 -293q76 -117 239 -315h-352l-318 532h-139zM436 1157v-426h115q96 0 164 55 q67 54 67 156t-65 159q-66 56 -162 56h-119z" glyph-name="Racute" horiz-adv-x="1271" unicode="Ŕ"/><glyph d="M225 1096l207 325h270q-16 -25 -118 -163t-121 -162h-238zM420 209q0 -117 6 -209h-281q4 139 5 211v608h-99l64 154h260q16 -170 18 -201q125 221 289 221q59 0 111 -28q-10 -52 -52 -252q-55 23 -108 23t-119 -43q-66 -42 -96 -93l2 -133v-258z" glyph-name="racute" horiz-adv-x="806" unicode="ŕ"/><glyph d="M436 532v-170q0 -244 6 -362h-290q6 80 6 365v667q0 272 -6 344h417q219 0 356.5 -107.5t137.5 -310.5q0 -264 -246 -350l189 -293q76 -117 239 -315h-352l-318 532h-139zM436 1157v-426h115q96 0 163.5 55.5t67.5 156.5t-65.5 157.5t-161.5 56.5h-119zM850 -199 q0 -117 -143 -256l-177 64q39 45 56.5 82t17.5 89t-18 87l252 6q12 -31 12 -72z" glyph-name="Rcommaaccent" horiz-adv-x="1271" unicode="Ŗ"/><glyph d="M420 209q0 -117 6 -209h-281q4 139 5 211v608h-99q20 54 64 154h260q16 -170 18 -201q125 221 289 221q59 0 111 -28q-10 -52 -52 -252q-55 23 -108 23t-118.5 -42.5t-96.5 -93.5l2 -133v-258zM442 -199q0 -117 -143 -256l-176 64q74 82 74 176q-1 47 -19 82l252 6 q12 -31 12 -72z" glyph-name="rcommaaccent" horiz-adv-x="806" unicode="ŗ"/><glyph d="M436 532v-170q0 -244 6 -362h-290q6 80 6 365v667q0 272 -6 344h417q219 0 356.5 -107.5t137.5 -310.5q0 -264 -246 -350l189 -293q76 -117 239 -315h-352l-318 532h-139zM436 1157v-426h115q96 0 163.5 55.5t67.5 156.5t-65.5 157.5t-161.5 56.5h-119zM739 1853h213 l-278 -333h-82l-275 333h207l109 -149z" glyph-name="Rcaron" horiz-adv-x="1271" unicode="Ř"/><glyph d="M420 209q0 -117 6 -209h-281q4 139 5 211v608h-99q20 54 64 154h260q16 -170 18 -201q125 221 289 221q59 0 111 -28q-10 -52 -52 -252q-55 23 -108 23t-118.5 -42.5t-96.5 -93.5l2 -133v-258zM508 1430h213l-279 -334h-82l-274 334h207l108 -150z" glyph-name="rcaron" horiz-adv-x="806" unicode="ř"/><glyph d="M829 1872q-47 -73 -239 -326h-238l207 326h270zM629 1186q-91 0 -143 -38t-52 -102t46 -109t136 -103t132 -90q41 -32 97 -87q111 -109 110 -286q-1 -176 -140 -288t-351 -112t-372 84q6 27 64 242q121 -106 286 -107q96 0 156 43q59 43 59 114t-51 123t-136 104t-125 80 t-94 81q-106 104 -106 277q0 172 126 282q125 110 305 109q180 0 317 -62v-239q-115 84 -264 84z" glyph-name="Sacute" horiz-adv-x="1062" unicode="Ś"/><glyph d="M250 1094l207 325h270q-17 -25 -119 -163t-121 -162h-237zM373 721q0 -37 41 -68t99 -59q59 -28 117 -65t99 -101t41 -152q0 -141 -101 -220t-291 -79t-302 66q8 37 23 110t24 109q119 -90 244 -90q67 0 103 27t36 60t-22 53q-22 21 -45 34q-23 14 -32 20t-36 18 q-144 69 -203 141q-59 71 -59 189t95 198q94 79 238 79t289 -47v-217q-127 74 -235 74q-57 1 -90 -21t-33 -59z" glyph-name="sacute" horiz-adv-x="856" unicode="ś"/><glyph d="M526 1696l-108 -150h-205l274 334h82q17 -25 139 -167t140 -167h-215zM629 1186q-91 0 -143 -38t-52 -102t46 -109t136 -103t132 -90q41 -32 97 -87q111 -109 110 -286q-1 -176 -140 -288t-351 -112t-372 84q6 27 64 242q121 -106 286 -107q96 0 156 43q59 43 59 114 t-51 123t-136 104t-125 80t-94 81q-106 104 -106 277q0 172 126 282q125 110 305 109q180 0 317 -62v-239q-115 84 -264 84z" glyph-name="Scircumflex" horiz-adv-x="1062" unicode="Ŝ"/><glyph d="M424 1243l-109 -149h-204l274 333h82q18 -25 139 -167t139 -166h-215zM373 721q0 -37 41 -68t99 -59q59 -28 117 -65t99 -101t41 -152q0 -141 -101 -220t-291 -79t-302 66q8 37 23 110t24 109q119 -90 244 -90q67 0 103 27t36 60t-22 53q-22 21 -45 34q-23 14 -32 20 t-36 18q-144 69 -203 141q-59 71 -59 189t95 198q94 79 238 79t289 -47v-217q-127 74 -235 74q-57 1 -90 -21t-33 -59z" glyph-name="scircumflex" horiz-adv-x="856" unicode="ŝ"/><glyph d="M434 1046q0 64 51.5 102t143.5 38q150 0 264 -84v239q-137 61 -317 61t-305.5 -109t-125.5 -281t80 -251t120 -107.5t125 -79.5t136 -103.5t51 -123.5t-59 -114t-156 -43q-166 0 -286 107q-57 -215 -64 -242q160 -84 372 -84t351 112t139 289t-83 259t-124 113.5 t-131 89.5t-136 103t-46 109zM670 -276q0 -101 -74 -153t-169 -52t-169 24q0 67 6 133q66 -27 115 -26q86 0 98 53q4 12 4 18q0 70 -119 70q-40 0 -63 -6q8 20 28.5 59.5t42.5 87.5t31 64h142q-8 -14 -22.5 -44t-22.5 -44q172 -29 172 -184z" glyph-name="Scedilla" horiz-adv-x="1062" unicode="Ş"/><glyph d="M378 -23q189 0 290.5 79t101.5 220q0 88 -41 153t-99.5 100.5t-116.5 64.5t-99 59.5t-41 67.5t32.5 58.5t90.5 21.5q109 0 235 -74v217q-145 47 -289 47t-238.5 -78.5t-94.5 -197.5t59 -189.5t190 -135t139.5 -90.5t8.5 -38q0 -37 -37 -63.5t-102 -26.5q-125 0 -244 90 l-47 -219q113 -66 302 -66zM592 -279q0 -100 -74 -152t-169 -52t-169 24q0 67 6 133q66 -27 115 -26q86 0 98 53q4 12 4 18q0 70 -118 70q-41 0 -64 -6q20 45 103 211h141q-8 -14 -22.5 -44t-22.5 -44q172 -29 172 -185z" glyph-name="scedilla" horiz-adv-x="856" unicode="ş"/><glyph d="M635 1880h213l-279 -334h-82l-274 334h207l108 -149zM629 1186q-91 0 -143 -38t-52 -102t46 -109t136 -103t132 -90q41 -32 97 -87q111 -109 110 -286q-1 -176 -140 -288t-351 -112t-372 84q6 27 64 242q121 -106 286 -107q96 0 156 43q59 43 59 114t-51 123t-136 104 t-125 80t-94 81q-106 104 -106 277q0 172 126 282q125 110 305 109q180 0 317 -62v-239q-115 84 -264 84z" glyph-name="Scaron" horiz-adv-x="1062" unicode="Š"/><glyph d="M373 721q0 -37 41 -67.5t99 -59.5t116.5 -64.5t99.5 -100t41 -153.5q0 -141 -101 -220t-291 -79t-302 66q8 37 23.5 109.5t23.5 109.5q119 -90 244 -90q66 0 102.5 26.5t36.5 67.5t-54 72.5t-140.5 74t-144.5 113t-58 188.5t94.5 197.5t238.5 79.5t289 -47v-217 q-127 74 -235 74q-57 0 -90 -21.5t-33 -58.5zM532 1427h213l-278 -333h-82l-274 333h206l109 -149z" glyph-name="scaron" horiz-adv-x="856" unicode="š"/><glyph d="M393 1376h467q264 0 340 2q-6 -117 -12 -239q-141 6 -332 6h-94q-2 -98 -2 -350v-439q0 -252 8 -356h-293q6 143 6 356v430q0 258 -4 359h-96q-190 0 -332 -6v239q96 -2 344 -2zM764 -168q0 -170 -170 -344q-37 8 -102.5 23.5t-92.5 21.5q96 139 97 262q0 57 -15 107 l269 28q14 -41 14 -98z" glyph-name="Tcommaaccent" horiz-adv-x="1245" unicode="Ţ"/><glyph d="M307 -207q0 57 -14 107q125 12 268 28q14 -41 14 -98q1 -170 -169 -344q-37 8 -102.5 23.5t-92.5 21.5q96 135 96 262zM461 1049v-76h266q-12 -82 -35 -211h-231v-363q0 -193 139 -192q43 0 92 26q20 -111 39 -196q-86 -53 -211 -53q-326 0 -325 395v383h-144v211h144 v203l270 61q-4 -111 -4 -188z" glyph-name="tcommaaccent" horiz-adv-x="800" unicode="ţ"/><glyph d="M727 1855h213l-278 -333h-82l-275 333h207l109 -149zM393 1376h467q264 0 340 2q-6 -117 -12 -239q-141 6 -332 6h-94q-2 -98 -2 -350v-439q0 -252 8 -356h-293q6 143 6 356v430q0 258 -4 359h-96q-190 0 -332 -6v239q96 -2 344 -2z" glyph-name="Tcaron" horiz-adv-x="1245" unicode="Ť"/><glyph d="M848 1448l-70 -389h-194l34 389h230zM461 1049v-76h266q-12 -82 -35 -211h-231v-363q0 -193 139 -192q43 0 92 26q20 -111 39 -196q-86 -53 -211 -53q-326 0 -325 395v383h-144v211h144v203l270 61q-4 -111 -4 -188z" glyph-name="tcaron" horiz-adv-x="800" unicode="ť"/><glyph d="M229 766h777v-184h-777v184zM393 1376h467q264 0 340 2q-6 -117 -12 -239q-141 6 -332 6h-94q-2 -98 -2 -350v-439q0 -252 8 -356h-293q6 143 6 356v430q0 258 -4 359h-96q-190 0 -332 -6v239q96 -2 344 -2z" glyph-name="Tbar" horiz-adv-x="1245" unicode="Ŧ"/><glyph d="M461 760v-361q0 -193 139 -192q43 0 92 26q20 -111 39 -196q-86 -53 -211 -53q-170 0 -247.5 107.5t-77.5 326.5v342h-144v211h144v67h-111v127h111v35l270 37q-2 -12 -2 -35.5t-2 -36.5h227v-127h-227v-67h266l-35 -211h-231z" glyph-name="tbar" horiz-adv-x="800" unicode="ŧ"/><glyph d="M430 1006v-471q0 -156 75 -237t206 -81t204.5 83t73.5 237v469q0 272 -4 370h285q-2 -94 -2 -372v-467q0 -266 -150.5 -411.5t-409.5 -145.5t-407.5 150.5t-148.5 406.5v467q-1 288 -5 372h289q-6 -92 -6 -370zM590 1745q63 0 133 -43t100 -43q53 0 58 74h151 q-2 -98 -50 -173t-129 -73t-159 44t-86 42q-55 0 -59 -74h-162q2 98 55.5 172t147.5 74z" glyph-name="Utilde" horiz-adv-x="1419" unicode="Ũ"/><glyph d="M401 584q0 -215 33 -299t141 -84q63 0 110.5 44t64.5 111v432q0 131 -5 185h281q-6 -76 -6 -180v-582q0 -127 20 -211h-237q-4 23 -14.5 68t-14.5 65q-88 -147 -289 -147q-156 0 -255 103.5t-99 311.5v418h-96l63 154h308q-4 -135 -5 -205v-184zM705 1262q53 0 57 73h151 q-2 -90 -47.5 -167.5t-133.5 -76.5q-86 1 -150 43t-93 42q-4 0 -16 -5q-41 -10 -43 -69h-162q2 90 49.5 163t153.5 83q61 0 131 -43t103 -43z" glyph-name="utilde" horiz-adv-x="0" unicode="ũ"/><glyph d="M430 1006v-471q0 -156 75 -237t206 -81t204.5 83t73.5 237v469q0 272 -4 370h285q-2 -94 -2 -372v-467q0 -264 -150.5 -410.5t-409.5 -146.5t-407.5 150.5t-148.5 406.5v467q-1 288 -5 372h289q-6 -92 -6 -370zM956 2728h-667v170h667v-170zM1026 1475h-668v170h668v-170 z" glyph-name="Umacron" horiz-adv-x="1419" unicode="Ū"/><glyph d="M401 584q0 -209 32 -296t134 -87q143 0 183 155v432q0 131 -5 185h281q-6 -76 -6 -180v-582q0 -127 20 -211h-237q-4 23 -14.5 68t-14.5 65q-84 -147 -282 -147q-162 0 -261.5 102t-99.5 313v418h-96l63 154h308q-4 -135 -5 -205v-184zM844 2284h-668v170h668v-170z M895 1110h-668v170h668v-170z" glyph-name="umacron" horiz-adv-x="1132" unicode="ū"/><glyph d="M706 1520q-122 0 -207 82t-89 206h182q2 -53 35 -84q33 -30 81 -30t80 30t37 84h181q-4 -124 -90 -206q-88 -82 -210 -82zM430 1006v-471q0 -156 75 -237t206 -81t205 83t73 237v469q0 272 -4 370h285q-2 -94 -2 -372v-467q0 -265 -151 -411t-409 -146t-408 150 q-148 151 -148 407v467q-1 288 -5 372h289q-6 -92 -6 -370z" glyph-name="Ubreve" horiz-adv-x="1419" unicode="Ŭ"/><glyph d="M564 1249q48 0 81 31t37 84h180q-4 -125 -90 -207t-209 -82t-208 83t-89 206h183q3 -53 35 -84t80 -31zM401 584q0 -209 32 -296t134 -87q143 0 183 155v432q0 131 -5 185h281q-6 -76 -6 -180v-582q0 -127 20 -211h-237q-4 23 -15 68q-10 45 -14 65q-84 -147 -282 -147 q-162 0 -262 102q-99 102 -99 313v418h-96l63 154h308q-4 -135 -5 -205v-184z" glyph-name="ubreve" horiz-adv-x="1132" unicode="ŭ"/><glyph d="M496 1716q0 84 61 140t153 57q92 0 153 -56q63 -55 63 -139t-62 -141t-154 -57q-91 0 -153 56q-61 56 -61 140zM635 1716q0 -34 20 -58q21 -24 55 -24t56 23t20 57q0 34 -21 58q-23 22 -55 22t-54 -22q-21 -23 -21 -56zM430 1006v-471q0 -156 75 -237t206 -81t205 83 t73 237v469q0 272 -4 370h285q-2 -94 -2 -372v-467q0 -265 -151 -411t-409 -146t-408 150q-148 151 -148 407v467q-1 288 -5 372h289q-6 -92 -6 -370z" glyph-name="Uring" horiz-adv-x="1419" unicode="Ů"/><glyph d="M352 1272q0 84 62 140t152 56q92 0 154 -56t62 -139t-62 -140t-154 -57t-152 56q-62 56 -62 140zM492 1272q0 -33 20 -58q20 -24 54 -24t56 22t21 58q1 36 -21 58t-55 22t-54 -22t-21 -56zM401 584q0 -209 32 -296t134 -87q143 0 183 155v432q0 131 -5 185h281 q-6 -76 -6 -180v-582q0 -127 20 -211h-237q-4 23 -15 68q-10 45 -14 65q-84 -147 -282 -147q-162 0 -262 102q-99 102 -99 313v418h-96l63 154h308q-4 -135 -5 -205v-184z" glyph-name="uring" horiz-adv-x="1132" unicode="ů"/><glyph d="M430 1006v-471q0 -156 75 -237t206 -81t204.5 83t73.5 237v469q0 272 -4 370h285q-2 -94 -2 -372v-467q0 -264 -150.5 -410.5t-409.5 -146.5t-407.5 150.5t-148.5 406.5v467q-1 288 -5 372h289q-6 -92 -6 -370zM336 1520l188 325h254l-229 -325h-213zM727 1520l191 325 h251q-164 -236 -229 -325h-213z" glyph-name="Uhungarumlaut" horiz-adv-x="1419" unicode="Ű"/><glyph d="M401 584q0 -209 32 -296t134 -87q143 0 183 155v432q0 131 -5 185h281q-6 -76 -6 -180v-582q0 -127 20 -211h-237q-4 23 -14.5 68t-14.5 65q-84 -147 -282 -147q-162 0 -261.5 102t-99.5 313v418h-96l63 154h308q-4 -135 -5 -205v-184zM193 1075l188 326h254l-229 -326 h-213zM584 1075l190 326h252q-164 -236 -229 -326h-213z" glyph-name="uhungarumlaut" horiz-adv-x="1132" unicode="ű"/><glyph d="M152 537q0 -256 148.5 -406.5t407.5 -150.5t409.5 146t150.5 411v467q0 279 2 372h-285q4 -98 4 -370v-469q0 -154 -73.5 -237t-204.5 -83t-206 81t-75 237v471q0 279 6 370h-289q4 -84 5 -372v-467zM391 -315q0 156 250 311q59 0 178 -4q-102 -66 -149 -121t-47 -119 q0 -16 2 -24q12 -59 94 -60q51 0 98 29q6 -43 21 -152q-102 -59 -212 -59t-172.5 55.5t-62.5 143.5z" glyph-name="Uogonek" horiz-adv-x="1419" unicode="Ų"/><glyph d="M401 584q0 -209 32 -296t134 -87q143 0 183 155v432q0 131 -5 185h281q-6 -76 -6 -180v-582q0 -127 20 -211h-237q-4 23 -14.5 68t-14.5 65q-84 -147 -282 -147q-162 0 -261.5 102t-99.5 313v418h-96l63 154h308q-4 -135 -5 -205v-184zM532 -360q0 -84 97 -84q51 0 98 28 q6 -43 21 -151q-102 -59 -212 -59t-172.5 55t-62.5 143q0 156 250 311q59 0 178 -4q-102 -66 -149.5 -121t-47.5 -118z" glyph-name="uogonek" horiz-adv-x="1132" unicode="ų"/><glyph d="M950 1669l-108 -149h-205l274 333h82q17 -25 139 -167t140 -166h-215zM958 776l-290 -780h-170q-459 1217 -523 1380h283q55 -156 168 -470t168 -472q14 25 39 70q23 63 92 266q70 203 109 313q-78 209 -117 293h284q141 -383 304 -844l49 -98q106 303 313 942h266 q-10 -27 -125 -333q-114 -306 -242 -647t-151 -400h-172q-47 131 -142 391q-96 260 -143 389z" glyph-name="Wcircumflex" horiz-adv-x="1910" unicode="Ŵ"/><glyph d="M741 1225l-108 -150h-205l274 334h82q18 -25 140 -167t139 -167h-215zM1212 973h273q-53 -117 -103 -244l-280 -745h-92l-258 612l-250 -612h-99l-299 757q-31 78 -98 232h301q12 -51 58 -178l135 -377l207 555h112q17 -47 105 -268t108 -285l127 387q53 164 53 166z" glyph-name="wcircumflex" horiz-adv-x="1490" unicode="ŵ"/><glyph d="M510 315v281l-326 522q-90 147 -172 258h332q38 -85 158.5 -283t154.5 -257l217 364q49 82 99 176h307q-8 -12 -56 -82.5t-81 -124.5l-359 -571v-283q1 -184 7 -315h-285q4 213 4 315zM756 1477l-109 149l-47 -65q-47 -66 -61 -84h-203l272 333h82q220 -257 279 -333 h-213z" glyph-name="Ycircumflex" horiz-adv-x="1292" unicode="Ŷ"/><glyph d="M449 1085h-205q16 20 272 334h84q47 -55 138 -166.5t139 -167.5h-213q-35 44 -107 150q-85 -119 -108 -150zM283 -403h-187l25 213q119 0 153 12q61 8 148 215q6 12 8 18q-12 29 -117.5 258.5t-197.5 431t-107 228.5h316q16 -48 111 -286t132 -335q10 29 56.5 145.5 t82.5 211t85 264.5h296q-20 -43 -211.5 -490t-237.5 -553t-87 -153q-119 -180 -268 -180z" glyph-name="ycircumflex" horiz-adv-x="1097" unicode="ŷ"/><glyph d="M510 315v281l-326 522q-90 147 -172 258h332q38 -85 158.5 -283t154.5 -257l217 364q49 82 99 176h307q-8 -12 -56 -82.5t-81 -124.5l-359 -571v-283q1 -184 7 -315h-285q4 213 4 315zM297 1654.5q0 55.5 40 95.5t96 40t96 -40t40 -95.5t-40 -95t-96 -39.5t-96 39.5 t-40 95zM723 1654.5q0 55.5 41 95.5t96 40t95 -40t40 -95.5t-40 -95t-95 -39.5t-96 39.5t-41 95z" glyph-name="Ydieresis" horiz-adv-x="1292" unicode="Ÿ"/><glyph d="M885 1849q-37 -58 -240 -325h-237l206 325h271zM778 231q240 0 318 5v-240q-78 4 -318 4h-729l295 532q297 532 342 613h-254q-260 0 -328 -4l-12 239q92 -4 354 -4h660q-117 -221 -158 -291l-485 -854h315z" glyph-name="Zacute" horiz-adv-x="1171" unicode="Ź"/><glyph d="M772 1403q-41 -65 -240 -326h-237l207 326h270zM254 973h647q-299 -500 -448 -748h260q74 0 180 4v-231q-43 2 -154 2h-692q76 125 226 374q151 249 227 371h-252q-109 0 -156 -4q-4 156 -4 234q45 -2 166 -2z" glyph-name="zacute" horiz-adv-x="946" unicode="ź"/><glyph d="M778 231q240 0 318 5v-240q-78 4 -318 4h-729l295 532q297 532 342 613h-254q-260 0 -328 -4l-12 239q92 -4 354 -4h660q-117 -221 -158 -291l-485 -854h315zM451 1665q0 61 40.5 101t100.5 40t102.5 -41t42.5 -100t-41 -100t-102.5 -41t-102 40t-40.5 101z" glyph-name="Zdotaccent" horiz-adv-x="1171" unicode="Ż"/><glyph d="M254 973h647q-299 -500 -448 -748h260q74 0 180 4v-231q-43 2 -154 2h-692q76 125 226.5 374t226.5 371h-252q-109 0 -156 -4q-4 156 -4 234q45 -2 166 -2zM338 1218.5q0 61.5 41 101.5t101 40t102.5 -41t42.5 -100t-41 -100.5t-102.5 -41.5t-102.5 40t-41 101.5z" glyph-name="zdotaccent" horiz-adv-x="946" unicode="ż"/><glyph d="M690 1858h213l-278 -334h-82l-275 334h207l109 -150zM778 231q240 0 318 5v-240q-78 4 -318 4h-729l295 532q297 532 342 613h-254q-260 0 -328 -4l-12 239q92 -4 354 -4h660q-117 -221 -158 -291l-485 -854h315z" glyph-name="Zcaron" horiz-adv-x="1171" unicode="Ž"/><glyph d="M254 973h647q-299 -500 -448 -748h260q74 0 180 4v-231q-43 2 -154 2h-692q76 125 226.5 374t226.5 371h-252q-109 0 -156 -4q-4 156 -4 234q45 -2 166 -2zM578 1411h213l-279 -334h-82l-274 334h206l109 -149z" glyph-name="zcaron" horiz-adv-x="946" unicode="ž"/><glyph d="M145 791h201l14 96q37 250 152 380t297 130q117 0 190 -29v-235q-71 47 -159 47t-146.5 -81t-77.5 -237l-8 -71h230v-197h-258l-50 -334q-53 -369 -175 -524.5t-349 -155.5q-106 0 -184 41v234q68 -51 178 -52q53 0 89 16.5t88 88t95 366.5l47 320h-174v197z" glyph-name="florin" horiz-adv-x="1105" unicode="ƒ"/><glyph d="M567 1919l164 287h248q-137 -205 -195 -287h-217zM414 307l-123 -307h-279q80 158 172 367l453 1030h94l477 -1061q59 -135 168 -336h-319q-8 23 -123 307h-520zM848 512l-178 451l-174 -451h352zM467 1659q0 84 61.5 140t152.5 56t152.5 -56t61.5 -139t-61.5 -140.5 t-152.5 -57.5t-152.5 56.5t-61.5 140.5zM604 1660q0 -32 21.5 -57.5t55.5 -25.5t55.5 22.5t21.5 57.5t-21.5 57.5t-54.5 22.5t-55.5 -22.5t-22.5 -54.5z" glyph-name="Aringacute" unicode="Ǻ"/><glyph d="M270 1262q0 84 61.5 139t152.5 55t153.5 -57t62.5 -139t-61 -139.5t-153 -57.5t-154 57.5t-62 141.5zM795 1823q-186 -276 -195 -289h-217l164 289h248zM410 1261q0 -34 20 -58.5t54 -24.5t55.5 22.5t21.5 57t-21.5 58t-54 23.5t-54 -22t-21.5 -56zM483 993 q225 0 320.5 -110.5t95.5 -339.5v-221q0 -203 41 -322h-258l-12 104q-106 -127 -283 -127q-139 0 -227 84t-88 215t96.5 230.5t478.5 99.5v29q0 70 -57.5 114t-136.5 44q-129 0 -250 -72q-42 93 -84 180q139 92 364 92zM326 285q0 -55 38 -89t90 -34t106 26.5t91 65.5v176 l-141 -6q-184 -6 -184 -139z" glyph-name="aringacute" horiz-adv-x="1019" unicode="ǻ"/><glyph d="M1233 1806l-238 -325h-237q109 166 205 325h270zM1411 0h-440l-53 309h-476q-10 -20 -151 -309h-287q82 137 709 1376h469q215 0 334 6l-13 -239q-74 4 -321 4h-185q29 -141 62 -344h198q215 0 293 4v-234q-78 4 -284 5h-160l57 -349h187q214 1 292 9v-240q-72 2 -231 2z M532 516h342q-38 246 -94 541q-41 -90 -124 -270.5t-124 -270.5z" glyph-name="AEacute" horiz-adv-x="1736" unicode="Ǽ"/><glyph d="M885 1087h-236q135 217 205 326h270q-137 -189 -239 -326zM463 993q207 0 297 -119q132 127 340 127t319 -137t111 -315q0 -66 -10 -107h-654q14 -250 324 -245q127 2 283 84v-203q-150 -92 -340 -92q-277 0 -396 145q-55 -66 -147 -110t-218 -44t-213 84t-87 220 q0 197 156.5 261t408.5 64v29q0 74 -52.5 116t-131.5 42q-129 0 -250 -72q-42 93 -84 180q137 92 344 92zM326 285q0 -55 37 -89t93 -34t112 27.5t91 72.5q-27 53 -26 168l-123 -6q-184 -10 -184 -139zM1080 799q-97 0 -154.5 -64.5t-65.5 -140.5h424q-2 90 -54.5 147.5 t-149.5 57.5z" glyph-name="aeacute" horiz-adv-x="1552" unicode="ǽ"/><glyph d="M815 1399q209 0 391 -115q78 89 88 102h234l-185 -208q195 -205 195 -502t-207 -499t-516 -202q-217 0 -397 111l-84 -96h-230q59 68 179 207q-191 201 -191 499t207 500.5t516 202.5zM815 205q193 0 316.5 137t123.5 344q0 154 -84 283q-428 -498 -593 -690 q106 -74 237 -74zM375 686q0 -156 80 -283q25 29 250 293.5t344 399.5q-104 74 -234 73q-193 0 -316.5 -137t-123.5 -346zM1157 1815q-160 -218 -237 -326h-238q70 109 205 326h270z" glyph-name="Oslashacute" horiz-adv-x="1630" unicode="Ǿ"/><glyph d="M913 1413q-160 -218 -237 -326h-238q70 109 205 326h270zM1067 479q0 -205 -145.5 -349t-352.5 -144q-170 0 -297 94q-25 -29 -82 -90h-129q94 102 142 155q-129 141 -129 347t146.5 352.5t348.5 146.5q166 0 295 -98q53 57 80 88h127l-57 -63q-58 -62 -80 -89 q133 -145 133 -350zM556 760q-90 0 -157 -79t-67 -180t39 -167q249 285 334 379q-59 47 -149 47zM569 211q102 0 171 80t69 180t-41 170q-171 -189 -336 -381q66 -49 137 -49z" glyph-name="oslashacute" horiz-adv-x="1142" unicode="ǿ"/><glyph d="M373 721q0 -37 41 -67.5t99 -59.5t116.5 -64.5t99.5 -100t41 -153.5q0 -141 -101 -220t-291 -79t-302 66q8 37 23.5 109.5t23.5 109.5q119 -90 244 -90q66 0 102.5 26.5t36.5 67.5t-54 72.5t-140.5 74t-144.5 113t-58 188.5t94.5 197.5t238.5 79.5t289 -47v-217 q-127 74 -235 74q-57 0 -90 -21.5t-33 -58.5zM592 -199q0 -117 -143 -256l-177 64q39 45 56.5 82t17.5 89t-18 87l252 6q12 -31 12 -72z" glyph-name="scommaaccent" horiz-adv-x="856" unicode="ș"/><glyph d="M393 1376h467q264 0 340 2q-6 -117 -12 -239q-141 6 -332 6h-94q-2 -98 -2 -350v-439q0 -252 8 -356h-293q6 143 6 356v430q0 258 -4 359h-96q-190 0 -332 -6v239q96 -2 344 -2zM764 -168q0 -170 -170 -344q-37 8 -102.5 23.5t-92.5 21.5q96 139 97 262q0 57 -15 107 l269 28q14 -41 14 -98z" glyph-name="uni021A" horiz-adv-x="1245" unicode="Ț"/><glyph d="M307 -207q0 57 -14 107q125 12 268 28q14 -41 14 -98q1 -170 -169 -344q-37 8 -102.5 23.5t-92.5 21.5q96 135 96 262zM461 1049v-76h266q-12 -82 -35 -211h-231v-363q0 -193 139 -192q43 0 92 26q20 -111 39 -196q-86 -53 -211 -53q-326 0 -325 395v383h-144v211h144 v203l270 61q-4 -111 -4 -188z" glyph-name="uni021B" horiz-adv-x="800" unicode="ț"/><glyph d="M440 1235l-108 -150h-205l274 334h82q18 -25 139 -167t140 -167h-215z" glyph-name="circumflex" horiz-adv-x="888" unicode="ˆ"/><glyph d="M549 1405h213l-279 -334h-82l-274 334h207l108 -150z" glyph-name="caron" horiz-adv-x="888" unicode="ˇ"/><glyph d="M429 1268q48 0 81 30.5t37 83.5h180q-4 -125 -90 -206.5t-209 -81.5t-208 82.5t-89 205.5h182q2 -53 35 -83.5t81 -30.5z" glyph-name="breve" horiz-adv-x="860" unicode="˘"/><glyph d="M295 1263.5q0 61.5 41 101.5t101 40t102.5 -41t42.5 -100t-41 -100.5t-102.5 -41.5t-102.5 40t-41 101.5z" glyph-name="dotaccent" horiz-adv-x="860" unicode="˙"/><glyph d="M203 1262q0 84 61.5 140t152.5 56t153.5 -56t62.5 -139t-62.5 -140.5t-153.5 -57.5t-152.5 56.5t-61.5 140.5zM342 1261.5q0 -32.5 20.5 -57t54.5 -24.5t55.5 22.5t21.5 57t-21.5 57t-54.5 22.5t-54.5 -22.5t-21.5 -55z" glyph-name="ring" horiz-adv-x="833" unicode="˚"/><glyph d="M160 -311q0 156 250 311q59 0 178 -4q-102 -66 -149.5 -121t-47.5 -119q0 -16 2 -24q12 -59 94 -60q51 0 99 29q6 -43 20 -152q-102 -59 -212 -59t-172 55.5t-62 143.5z" glyph-name="ogonek" horiz-adv-x="849" unicode="˛"/><glyph d="M557 1262q53 0 57 73h152q-2 -90 -47.5 -167.5t-133.5 -76.5q-87 1 -151 43t-92 42q-4 0 -16 -5q-41 -10 -43 -69h-162q2 90 49.5 163t153.5 83q61 0 130.5 -43t102.5 -43z" glyph-name="tilde" horiz-adv-x="888" unicode="˜"/><glyph d="M121 1090l188 325h254l-229 -325h-213zM512 1090l190 325h252q-164 -236 -229 -325h-213z" glyph-name="hungarumlaut" horiz-adv-x="987" unicode="˝"/><glyph d="M559 1253l-272 -467h-234q112 245 223 467h283z" glyph-name="uni0374" horiz-adv-x="561" unicode="ʹ"/><glyph d="M57 -258l240 467h266l-260 -467h-246z" glyph-name="uni0375" horiz-adv-x="561" unicode="͵"/><glyph d="M268 1087l174 330h275l-217 -330h-232z" glyph-name="tonos" horiz-adv-x="894" unicode="΄"/><glyph d="M745 1419l-180 -336h-196q27 66 139 336h237zM866.5 1118q-51.5 0 -88.5 36t-37 88t37 88t88.5 36t88 -36t36.5 -87t-36.5 -88t-88 -37zM223 1118q-51 0 -87 36t-36 88t36 88t87 36t88 -36t37 -87t-37 -88t-88 -37z" glyph-name="dieresistonos" horiz-adv-x="1081" unicode="΅"/><glyph d="M-2 991l113 428h245q-125 -354 -149 -428h-209zM414 307l-123 -307h-279q80 158 172 367l453 1030h94l477 -1061q59 -135 168 -336h-319q-8 23 -123 307h-520zM848 512l-178 451l-174 -451h352z" glyph-name="Alphatonos" horiz-adv-x="1390" unicode="Ά"/><glyph d="M109 718q0 71 50 121t121.5 50t121 -49t49.5 -121t-50.5 -122t-120.5 -50t-120.5 50t-50.5 121z" glyph-name="anoteleia" horiz-adv-x="559" unicode="·"/><glyph d="M-49 991l112 426h244q-32 -92 -149 -426h-207zM408 1026q0 215 -7 346h494q188 0 291 6l-43 -239q-77 6 -253 6t-206 -2v-322h127q236 0 319 4v-235q-127 6 -319 6h-127v-371h176q240 0 320 4v-233q-80 4 -316 4h-463q8 84 9 184l-2 160v682z" glyph-name="Epsilontonos" horiz-adv-x="1286" unicode="Έ"/><glyph d="M-53 991l112 426h244q-32 -92 -149 -426h-207zM1257 829v199q0 215 -6 344h289q-6 -133 -6 -354v-799q0 -121 6 -221h-289q6 104 6 293v313h-604v-315q0 -211 4 -291h-286q6 117 6 301v719q0 238 -6 354h286q-4 -104 -4 -416v-127h604z" glyph-name="Etatonos" horiz-adv-x="1695" unicode="Ή"/><glyph d="M-51 991l112 426h244q-32 -92 -149 -426h-207zM659 987v-627q0 -272 7 -362h-287q4 86 4 364v625q0 293 -4 385h287q-7 -102 -7 -385z" glyph-name="Iotatonos" horiz-adv-x="819" unicode="Ί"/><glyph d="M313 1419l-149 -428h-209l115 428h243zM238 687q0 302 204.5 507t510.5 205t517 -205t211 -509t-204.5 -507t-514.5 -203t-517 205t-207 507zM520 689q0 -200 123 -342t314 -142t316.5 140t125.5 341t-125 342t-315.5 141t-314.5 -140t-124 -340z" glyph-name="Omicrontonos" horiz-adv-x="1771" unicode="Ό"/><glyph d="M319 1419l-147 -428h-209l115 428h241zM862 315v281l-325 522q-96 156 -170 258h329q38 -85 158.5 -283t155.5 -257l217 364q49 82 98 176h307q-8 -12 -56 -82.5t-81 -124.5l-358 -571v-283q0 -184 6 -315h-285q4 213 4 315z" glyph-name="Upsilontonos" horiz-adv-x="1656" unicode="Ύ"/><glyph d="M-47 991l113 428h243l-147 -428h-209zM813 0h-297q-256 0 -330 -6v237q84 -6 250 -6h101q-133 86 -213 229.5t-80 293.5q0 309 210 503.5t515 194.5t511 -203t206 -495q0 -154 -84 -297.5t-216 -225.5h89q180 0 264 6v-237q-76 6 -348 6h-279v244q129 80 208 213t79 278 q0 201 -124 337t-314.5 136t-313.5 -138t-121 -335q2 -150 80 -281.5t207 -209.5v-244z" glyph-name="Omegatonos" horiz-adv-x="1792" unicode="Ώ"/><glyph d="M500 1419q-69 -135 -178 -336h-199q113 270 139 336h238zM620.5 1118q-51.5 0 -87 36t-35.5 88t35.5 88t87 36t88 -36t36.5 -87t-36.5 -88t-88 -37zM-20.5 1118q-51.5 0 -87 36t-35.5 88t35.5 88t87 36t88 -36t36.5 -87t-36.5 -88t-88 -37zM139 207v553q0 152 -8 213h285 q-8 -72 -8 -207v-559q0 -147 8 -207h-283q6 78 6 207z" glyph-name="iotadieresistonos" horiz-adv-x="563" unicode="ΐ"/><glyph d="M414 307l-123 -307h-279q80 158 172 367l453 1030h94l477 -1061q59 -135 168 -336h-319q-8 23 -123 307h-520zM848 512l-178 451l-174 -451h352z" glyph-name="Alpha" unicode="Α"/><glyph d="M584 0h-432q6 123 6 362v611q0 330 -4 403h415q184 0 312.5 -89t128.5 -249q0 -94 -49.5 -168.5t-131.5 -107.5q115 -33 189 -127t74 -219q0 -197 -144.5 -306.5t-363.5 -109.5zM809 411q0 101 -62.5 162.5t-164.5 61.5h-146v-440h133q113 0 176.5 57.5t63.5 158.5z M436 819h119q82 0 133 50.5t51 133.5t-51 134t-143 51h-109v-369z" glyph-name="Beta" horiz-adv-x="1191" unicode="Β"/><glyph d="M158 358v652q0 238 -4 362h508q182 0 311 6q-4 -41 -8 -98l-7 -147q-72 4 -311 4h-211v-781q0 -258 4 -358h-286q4 90 4 360z" glyph-name="Gamma" horiz-adv-x="1019" unicode="Γ"/><glyph d="M1354 0h-1342q92 184 134 279t254 582t235 536h94l475 -1080q103 -229 150 -317zM958 225l-286 742q-127 -338 -289 -742h575z" glyph-name="Delta" horiz-adv-x="1366" unicode="Δ"/><glyph d="M434 823h127q236 0 320 4v-233q-84 4 -320 4h-127v-369h176q240 0 320 4v-237q-80 4 -316 4h-462q6 66 6 346v682q0 217 -6 348h493q188 0 291 6l-43 -239q-78 4 -354 4h-105v-324z" glyph-name="Epsilon" horiz-adv-x="1050" unicode="Ε"/><glyph d="M778 231q240 0 318 5v-240q-78 4 -318 4h-729l295 532q297 532 342 613h-254q-260 0 -328 -4l-12 239q92 -4 354 -4h660q-117 -221 -158 -291l-485 -854h315z" glyph-name="Zeta" horiz-adv-x="1171" unicode="Ζ"/><glyph d="M1040 831v201q0 213 -6 344h287q-6 -199 -6 -356v-797q0 -20 6 -223h-287q6 104 6 293v315h-606v-315q0 -213 6 -293h-286q4 78 4 301v719q0 276 -4 356h286q-6 -104 -6 -418v-127h606z" glyph-name="Eta" horiz-adv-x="1474" unicode="Η"/><glyph d="M936 791q119 0 184 4v-201q-106 4 -188 4h-236q-80 0 -186 -4v201l184 -4h242zM88 686q0 305 207 508t515 203t516 -206t208 -511t-207 -506t-516 -201t-516 204t-207 509zM373 685q0 -208 123.5 -345t315.5 -137t314.5 137t122.5 343t-125 344t-314 138t-313 -136 t-124 -344z" glyph-name="Theta" horiz-adv-x="1628" unicode="Θ"/><glyph d="M440 991v-626q0 -272 4 -365h-286q6 129 6 365v626q0 244 -6 385h286q-4 -68 -4 -385z" glyph-name="Iota" horiz-adv-x="602" unicode="Ι"/><glyph d="M436 348q0 -244 4 -348h-288q4 88 4 348v680q0 254 -4 348h288q-4 -96 -4 -346v-289l305 400q49 63 166 235h312q-25 -29 -70 -92t-68 -90l-374 -475l399 -483q90 -111 203 -236h-375q-82 121 -131 180l-367 451v-283z" glyph-name="Kappa" horiz-adv-x="1323" unicode="Κ"/><glyph d="M1071 -16l-373 905l-370 -905h-316q57 96 144 286l497 1116h70l504 -1130q29 -63 79 -161.5t56 -110.5h-291z" glyph-name="Lambda" horiz-adv-x="1374" unicode="Λ"/><glyph d="M1280 868l-391 -700h-64l-399 700l-35 -563q-4 -68 -7 -175t-5 -130h-287q4 53 14.5 170t14.5 180l72 1032h210l457 -823l455 823h205l59 -1054q8 -182 25 -328h-279q-4 158 -12 301z" glyph-name="Mu" horiz-adv-x="1699" unicode="Μ"/><glyph d="M422 287q0 -170 6 -287h-276q4 80 4 293v731q0 240 -4 373h98l797 -875v502q0 227 -7 352h283q-8 -166 -8 -346v-737q0 -213 4 -305h-100l-797 882v-583z" glyph-name="Nu" horiz-adv-x="1472" unicode="Ν"/><glyph d="M395 242h340q131 0 307 4v-250q-88 4 -307 4h-342q-205 0 -287 -4v250q63 -4 289 -4zM354 1376h453q92 0 227 6v-252q-160 4 -260 5h-420q-106 -1 -237 -5v250q135 -4 237 -4zM397 829h332q129 0 246 5v-250q-80 4 -246 4h-358l-64 2q-80 0 -135 -6v247q61 -2 225 -2z " glyph-name="Xi" horiz-adv-x="1153" unicode="Ξ"/><glyph d="M92 686q0 301 207 507t512 206t516 -206t211 -508t-204 -506t-515 -204t-519 205t-208 506zM377 688q0 -201 122.5 -342t316.5 -141t316.5 137t122.5 341t-123.5 345t-315.5 141t-315.5 -140t-123.5 -341z" glyph-name="Omicron" horiz-adv-x="1628" unicode="Ο"/><glyph d="M1278 1122v-753q0 -250 6 -369h-291q6 135 6 369v776h-561v-776q0 -242 6 -369h-290q6 152 6 371v624q0 227 -6 381h1130q-6 -184 -6 -254z" glyph-name="Pi" horiz-adv-x="1439" unicode="Π"/><glyph d="M436 489v-137q0 -229 6 -352h-290q6 119 6 360v689q0 221 -6 327h401q233 0 371.5 -120.5t138.5 -323.5t-134 -323t-378 -120h-115zM436 1163v-465h96q111 0 179.5 65t68.5 167t-66.5 167.5t-181.5 65.5h-96z" glyph-name="Rho" horiz-adv-x="1144" unicode="Ρ"/><glyph d="M866 217q170 0 248 2v-221q-58 2 -244 2h-843l483 700q-80 113 -237.5 338.5t-237.5 337.5h776q225 0 299 2q-8 -139 -14 -223q-78 4 -240 4h-381l322 -457q-102 -149 -336 -485h405z" glyph-name="Sigma" horiz-adv-x="1214" unicode="Σ"/><glyph d="M393 1376h467q264 0 340 2q-6 -117 -12 -239q-141 6 -332 6h-94q-2 -98 -2 -350v-439q0 -252 8 -356h-293q6 143 6 356v430q0 258 -4 359h-96q-190 0 -332 -6v239q96 -2 344 -2z" glyph-name="Tau" horiz-adv-x="1245" unicode="Τ"/><glyph d="M510 315v281l-326 522q-90 147 -172 258h332q38 -85 158.5 -283t154.5 -257l217 364q49 82 99 176h307q-8 -12 -56 -82.5t-81 -124.5l-359 -571v-283q1 -184 7 -315h-285q4 213 4 315z" glyph-name="Upsilon" horiz-adv-x="1292" unicode="Υ"/><glyph d="M1532 692q0 -254 -165 -421t-429 -197q0 -82 2 -121h-262q4 53 4 121q-268 35 -430 199.5t-162 419.5t165 424t427 200q0 59 -4 129h262q-2 -37 -2 -129q268 -37 431 -204t163 -421zM360 693q0 -153 85 -257t237 -131v780q-150 -27 -236 -133t-86 -259zM1257 694 q0 152 -85.5 258t-235.5 133v-780q150 27 235.5 132t85.5 257z" glyph-name="Phi" horiz-adv-x="1624" unicode="Φ"/><glyph d="M805 176q-164 264 -189 303l-202 -332q-57 -93 -69.5 -117t-16.5 -30h-314q119 152 463 692q-27 45 -224.5 349.5t-219.5 334.5h332q64 -115 150.5 -259t117.5 -197q268 446 272 456h309q-125 -162 -442 -663l246 -387q137 -213 223 -326h-332q-6 12 -104 176z" glyph-name="Chi" horiz-adv-x="1255" unicode="Χ"/><glyph d="M649 1081q0 225 -4 295h275q-4 -74 -5 -295v-424q134 28 194.5 126.5t68.5 192t10 147t3 132t3 121.5h279q-11 -46 -25 -326t-157.5 -442t-375.5 -190v-109q0 -236 5 -309h-275q4 90 4 309v109q-260 35 -391.5 204.5t-141.5 409.5t-24 344h279q14 -350 30 -440 q35 -195 160 -252q39 -18 88 -27v424z" glyph-name="Psi" horiz-adv-x="1564" unicode="Ψ"/><glyph d="M707 0h-297q-256 0 -330 -6v237q84 -6 248 -6h102q-133 86 -213 229.5t-80 293.5q0 309 210 503.5t515 194.5t511 -203t206 -495q0 -154 -84 -297.5t-215 -225.5h88q180 0 264 6v-237q-76 6 -348 6h-278v244q129 80 207.5 213t78.5 278q0 201 -125 337t-314 136 t-312 -138t-121 -335q2 -150 80 -281.5t207 -209.5v-244z" glyph-name="Omega" horiz-adv-x="1712" unicode="Ω"/><glyph d="M440 991v-626q0 -272 4 -365h-286q6 129 6 365v626q0 244 -6 385h286q-4 -68 -4 -385zM-49 1611.5q0 55.5 40 95.5t96 40t96 -40t40 -95.5t-40 -95t-96 -39.5t-96 39.5t-40 95zM377 1611.5q0 55.5 41 95.5t96 40t95 -40t40 -95.5t-40 -95t-95 -39.5t-96 39.5t-41 95z" glyph-name="Iotadieresis" horiz-adv-x="600" unicode="Ϊ"/><glyph d="M510 315v281l-326 522q-90 147 -172 258h332q38 -85 158.5 -283t154.5 -257l217 364q49 82 99 176h307q-8 -12 -56 -82.5t-81 -124.5l-359 -571v-283q1 -184 7 -315h-285q4 213 4 315zM309 1616q0 55 40 95t96 40t96.5 -40t40.5 -95t-40 -95t-96 -40t-96.5 40t-40.5 95z M735 1616q0 55 41 95t96.5 40t95.5 -40t40 -95t-40 -95t-95.5 -40t-96.5 40t-41 95z" glyph-name="Upsilondieresis" horiz-adv-x="1292" unicode="Ϋ"/><glyph d="M1116 203q20 0 39 10l27 -190q-74 -43 -154 -43t-130 54t-81 169q-119 -225 -334 -226q-182 0 -295.5 150.5t-113.5 358.5t115.5 356.5t310.5 148.5t291 -205q35 154 45 189l247 -14q-74 -264 -94 -422q18 -166 36.5 -219.5t30 -76t26 -31.5t34.5 -9zM545 762 q-80 0 -137.5 -80t-57.5 -196.5t57.5 -198.5t139.5 -82t143.5 76.5t79.5 205.5q-29 131 -87 203t-138 72zM899 1417l-217 -330h-229l172 330h274z" glyph-name="alphatonos" horiz-adv-x="1220" unicode="ά"/><glyph d="M500 -18q-195 0 -310.5 78.5t-115.5 209.5q0 92 54 149.5t140 80.5q-76 25 -124 81t-48 128q0 129 105.5 205.5t278.5 76.5t321 -61v-223q-125 77 -285 77t-160 -94q0 -47 45 -73.5t131 -26.5t127 6v-203q-49 8 -155 8q-164 0 -164 -102q0 -51 48 -81t134 -30 q150 0 307 82l13 -198q-147 -90 -342 -90zM367 1087l174 330h272q-10 -14 -102 -157.5t-115 -172.5h-229z" glyph-name="epsilontonos" horiz-adv-x="911" unicode="έ"/><glyph d="M717 1085h-228q84 162 175 330h272q-72 -109 -219 -330zM137 242v577q0 111 -14 154h270q0 -65 6 -125q115 141 306 141q350 0 350 -446v-768q0 -178 4 -238h-275q4 70 4 242v805q0 72 -53 128t-123 56t-126 -42t-87 -110v-374q0 -178 4 -242h-272q6 99 6 242z" glyph-name="etatonos" horiz-adv-x="1161" unicode="ή"/><glyph d="M381 1085h-229q121 229 172 330h274q-121 -183 -217 -330zM139 207v553q0 152 -8 213h285q-8 -72 -8 -207v-559q0 -147 8 -207h-283q6 78 6 207z" glyph-name="iotatonos" horiz-adv-x="563" unicode="ί"/><glyph d="M606 201q211 0 211 350q0 244 -115 422h283q117 -209 117 -426q0 -268 -132 -416.5t-350 -148.5t-346.5 116.5t-128.5 315.5q0 53 12.5 141t12.5 117q0 90 -59 90q-27 0 -48 -10l-34 196q86 45 172 45q123 0 182 -71.5t59 -186.5l-18 -297q0 -113 49 -175t133 -62z M397 1085l140 334h237l-178 -334h-199zM129 1243q0 51 36 88t87 37t88 -37t37 -88t-37 -88t-88 -37t-87 37t-36 88zM772 1243q0 51 36 88t87 37t88 -37t37 -88t-37 -88t-88 -37t-87 37t-36 88z" glyph-name="upsilondieresistonos" horiz-adv-x="1181" unicode="ΰ"/><glyph d="M1116 203q20 0 39 10l27 -190q-74 -43 -154 -43t-130 54t-81 169q-119 -225 -334 -226q-182 0 -295.5 150.5t-113.5 358.5t115.5 356.5t310.5 148.5t291 -205q35 154 45 189l247 -14q-74 -264 -94 -422q18 -166 36.5 -219.5t30 -76t26 -31.5t34.5 -9zM545 762 q-80 0 -137.5 -80t-57.5 -196.5t57.5 -198.5t139.5 -82t143.5 76.5t79.5 205.5q-29 131 -87 203t-138 72z" glyph-name="alpha" horiz-adv-x="1220" unicode="α"/><glyph d="M659 -23q-145 0 -249 41v-213q0 -133 4 -268h-279q2 78 2 262v1149q0 262 123 406.5t348 144.5q174 0 310.5 -113.5t136.5 -298.5q0 -98 -58.5 -184t-144.5 -117q129 -25 215 -126t86 -248q0 -193 -140.5 -314t-353.5 -121zM631 664q-61 0 -90 -7v205q113 0 180 59.5 t67 153.5t-51 146.5t-136 52.5t-137 -66.5t-52 -191.5v-760q88 -51 210 -51t187 62.5t65 165t-67 167t-176 64.5z" glyph-name="beta" horiz-adv-x="1230" unicode="β"/><glyph d="M173 723q-56 0 -97 -12l-84 231q48 14 150 20t199 -26.5t148.5 -86.5t81 -135t34.5 -151.5t2 -124.5t-1 -69q43 219 109.5 339.5t220.5 292.5l217 -190q-223 -180 -318.5 -353t-154.5 -446l-29 -487l-276 2l82 481q-6 41 -14.5 132t-15.5 159t-26.5 153t-46 139t-76 93 t-105.5 39z" glyph-name="gamma" horiz-adv-x="1198" unicode="γ"/><glyph d="M74 453q0 156 94 271.5t248 160.5q-266 176 -266 325q0 125 118 195t336 70t416 -105q-2 -12 -6 -122.5t-6 -123.5q-215 143 -424 144q-147 0 -148 -92q0 -34 48 -72.5t73 -56t86.5 -58.5t87.5 -59q164 -113 248 -220.5t84 -250.5q0 -201 -147.5 -337t-351.5 -136 t-347 133t-143 334zM567 219q90 0 152.5 69.5t62.5 169.5t-57 170t-147 89q-55 0 -141.5 -74t-84.5 -201q2 -92 63.5 -157.5t151.5 -65.5z" glyph-name="delta" horiz-adv-x="1136" unicode="δ"/><glyph d="M500 -18q-195 0 -310.5 78.5t-115.5 209.5q0 92 54 149.5t140 80.5q-76 25 -124 81t-48 128q0 129 105.5 205.5t278.5 76.5t321 -61v-223q-125 77 -285 77t-160 -94q0 -47 45 -73.5t131 -26.5t127 6v-203q-49 8 -155 8q-164 0 -164 -102q0 -51 48 -81t134 -30 q150 0 307 82l13 -198q-147 -90 -342 -90z" glyph-name="epsilon" horiz-adv-x="911" unicode="ε"/><glyph d="M354 520q0 -119 56.5 -174t162.5 -84q166 -41 247 -103.5t81 -200.5t-117 -333q-2 0 -100 28t-113 32q72 121 72 204q0 90 -156 123q-401 90 -401 432q0 395 479 822q-225 -27 -403 -27l-8 205q55 -6 200 -6q322 0 502 57l2 -215q-504 -395 -504 -760z" glyph-name="zeta" horiz-adv-x="921" unicode="ζ"/><glyph d="M137 242v577q0 111 -14 154h270q0 -65 6 -125q115 141 306 141q350 0 350 -446v-768q0 -178 4 -238h-275q4 70 4 242v805q0 72 -53 128t-123 56t-126 -42t-87 -110v-374q0 -178 4 -242h-272q6 99 6 242z" glyph-name="eta" horiz-adv-x="1177" unicode="η"/><glyph d="M584 1468q160 0 325.5 -155.5t165.5 -589.5t-167 -585.5t-324 -151.5q-236 0 -364 214t-128 526t129.5 527t362.5 215zM813 616h-459q29 -408 230 -407q98 0 157.5 105t71.5 302zM583.5 1241q-98.5 0 -157 -106t-72.5 -301h459q-10 193 -70.5 300t-159 107z" glyph-name="theta" horiz-adv-x="1171" unicode="θ"/><glyph d="M141 207v553q0 137 -10 213h285q-6 -80 -6 -207v-559q0 -139 6 -207h-283q8 68 8 207z" glyph-name="iota" horiz-adv-x="532" unicode="ι"/><glyph d="M426 0h-283q2 68 2 238v475q0 182 -2 258h285l-2 -236v-180q96 123 262 253t330 193q16 -25 123 -186q-225 -88 -410 -262q297 -395 420 -553h-342q-158 225 -268 371q-76 -82 -115 -146v-225z" glyph-name="kappa" horiz-adv-x="1159" unicode="κ"/><glyph d="M94 1176v213q230 0 302.5 -46.5t97 -70.5t69.5 -86t89 -164t232.5 -542.5t207.5 -479.5h-297q-66 238 -222 616q-238 -592 -245 -616h-316q49 94 422 915q-74 203 -125 228q-66 33 -215 33z" glyph-name="lambda" horiz-adv-x="1099" unicode="λ"/><glyph d="M406 766v-182q0 -113 12 -203q23 -180 188 -180q68 0 122 45t71 110v392q0 158 -4 223h278q-4 -61 -4 -219v-541q0 -104 16 -211h-233q-13 44 -31 133q-90 -147 -241 -147q-127 -1 -195 112q10 -86 10 -225v-145q0 -113 8 -201h-274q6 78 6 207v1083h-96l63 154h308 q-4 -131 -4 -205z" glyph-name="mu" horiz-adv-x="1177" unicode="μ"/><glyph d="M729 750q0 119 -53 221h260q37 -131 37 -244q0 -186 -107.5 -366.5t-320.5 -380.5h-96q-380 870 -441 991h318q35 -111 235 -623q168 201 168 402z" glyph-name="nu" horiz-adv-x="1040" unicode="ν"/><glyph d="M451 948q0 -63 59 -108t137 -45t129 10v-207q-18 2 -53 2q-152 0 -249 -49t-97 -141q0 -115 201 -158q147 -31 237 -106.5t90 -200.5q0 -80 -30 -148t-93 -166q-195 100 -198 103q61 104 61 147t-44 83t-120 54q-162 29 -268.5 120.5t-106.5 217.5t75 208.5t208 123.5 q-207 57 -207 223q0 203 342 349q-195 -33 -372 -37q-4 74 -21 207h207q313 0 532 53q7 -122 7 -207q-426 -141 -426 -328z" glyph-name="xi" horiz-adv-x="958" unicode="ξ"/><glyph d="M74 487q0 211 147 357.5t353 146.5t350.5 -148.5t144.5 -358.5t-145.5 -354t-353.5 -144t-352 145t-144 356zM334 482q0 -110 67.5 -189.5t170 -79.5t170 78.5t67.5 194.5t-68.5 195t-170.5 79t-169 -84t-67 -194z" glyph-name="omicron" horiz-adv-x="1142" unicode="ο"/><glyph d="M1137 735h-78v-315q0 -291 31 -420h-279q-14 78 -14 328v407h-234v-735h-250v735h-254v223h1080q51 1 141 5v-230q-39 2 -143 2z" glyph-name="pi" horiz-adv-x="1361" unicode="π"/><glyph d="M137 -453v942q0 242 132.5 379.5t356.5 137.5t353 -137.5t129 -362.5t-125 -373.5t-328 -148.5q-145 0 -247 75v-512h-271zM406 489v-194q82 -86 196 -86t175 80t61 208t-62 205.5t-164 77.5t-154 -77t-52 -214z" glyph-name="rho" horiz-adv-x="1204" unicode="ρ"/><glyph d="M332 483q0 -193 258 -276q139 -47 195.5 -115.5t56.5 -181.5q0 -147 -133 -320q-66 6 -224 23q106 154 107 227q0 131 -153.5 174t-262 159.5t-108.5 316.5t153.5 344.5t366.5 144.5q96 0 209 -25v-264q-80 53 -195 53t-192.5 -77t-77.5 -183z" glyph-name="sigma1" horiz-adv-x="901" unicode="ς"/><glyph d="M997 442q0 -186 -123.5 -322t-332.5 -136t-337 141t-128 363t144.5 358.5t383.5 136.5h567l-59 -231h-217q102 -124 102 -310zM344 481q0 -125 53.5 -196.5t140.5 -71.5t139 71.5t52 182.5q0 172 -94 285h-35q-113 0 -184.5 -73t-71.5 -198z" glyph-name="sigma" horiz-adv-x="1179" unicode="σ"/><glyph d="M791 762h-189q-4 -209 -4 -406q0 -154 117 -153q45 0 82 20l39 -186q-86 -55 -214 -55t-210 82.5t-82 246.5q0 258 4 451h-84q-131 0 -199 -8v204q72 14 223 15h689l-35 -217q-78 6 -137 6z" glyph-name="tau" horiz-adv-x="1001" unicode="τ"/><glyph d="M606 201q211 0 211 350q0 244 -115 422h283q117 -209 117 -426q0 -268 -132 -416.5t-350 -148.5t-346.5 116.5t-128.5 315.5q0 53 12.5 141t12.5 117q0 90 -59 90q-27 0 -48 -10l-34 196q86 45 172 45q123 0 182 -71.5t59 -186.5l-18 -297q0 -113 49 -175t133 -62z" glyph-name="upsilon" horiz-adv-x="1181" unicode="υ"/><glyph d="M588 -229v215q-240 23 -379 158.5t-139 345.5t141 348.5t377 158.5v193q0 150 -6 225h249q-6 -117 -6 -223v-195q229 -23 375 -159t146 -349t-146.5 -350t-372.5 -155v-213q0 -133 7 -213h-250q4 90 4 213zM332 489.5q0 -116.5 72.5 -193.5t183.5 -85v555 q-111 -4 -183.5 -82t-72.5 -194.5zM1083 490q0 116 -72.5 194t-185.5 82v-555q113 8 185.5 85.5t72.5 193.5z" glyph-name="phi" horiz-adv-x="1417" unicode="φ"/><glyph d="M137 764q-29 0 -49 -10l-35 198q66 39 148 39q131 0 216 -106.5t163 -337.5q81 168 217 424h278q-59 -113 -385 -723q137 -413 180 -449.5t80 -36.5t58 11l36 -199q-66 -31 -135 -31q-129 0 -216 100.5t-169 315.5q-73 -135 -215 -410h-278q281 521 379 701 q-95 301 -120.5 350t-60 106.5t-92.5 57.5z" glyph-name="chi" horiz-adv-x="1095" unicode="χ"/><glyph d="M885 1247v-1034q279 57 278 418q0 188 -69 340h278q68 -135 68 -376t-147.5 -419t-407.5 -196v-250q0 -129 2 -183h-252l2 183v250q-240 23 -384 155.5t-144 351.5l20 281q0 115 -29 203h262q35 -80 35 -205l-16 -256q0 -125 68.5 -202t187.5 -95v969l-2 250h252 q-2 -57 -2 -185z" glyph-name="psi" horiz-adv-x="1523" unicode="ψ"/><glyph d="M1063 -16q-96 0 -183 57t-110 147q-31 -96 -107.5 -151t-185.5 -55q-188 0 -290.5 138t-102.5 364t174 489q141 -6 291 -6q-188 -227 -189 -482q0 -125 40 -194.5t110 -69.5q139 0 139 297q0 147 -6 187h264q-6 -70 -6 -168q0 -315 141 -316q72 0 111 72t39 192 q0 266 -184 482l295 6q164 -246 163 -502q0 -211 -106.5 -349t-296.5 -138z" glyph-name="omega" horiz-adv-x="1552" unicode="ω"/><glyph d="M346 1250q0 56 40 95t96 39t95 -39t39 -95t-39 -96t-95 -40t-96 40t-40 96zM-78 1250q0 56 40 95t95.5 39t95.5 -39t40 -95t-40 -96t-95.5 -40t-95.5 40t-40 96zM139 207v553q0 152 -8 213h285q-8 -72 -8 -207v-559q0 -147 8 -207h-283q6 78 6 207z" glyph-name="iotadieresis" horiz-adv-x="563" unicode="ϊ"/><glyph d="M604 201q211 0 211 350q0 244 -115 422h283q117 -209 117 -426q0 -268 -132 -416.5t-350 -148.5t-346.5 116.5t-128.5 315.5q0 53 12.5 141t12.5 117q0 90 -59 90q-27 0 -48 -10l-34 196q86 45 172 45q123 0 182 -71.5t59 -186.5l-18 -297q0 -113 49 -175t133 -62z M217 1251.5q0 55.5 39 95t95 39.5t96 -39.5t40 -95t-39.5 -96.5t-95 -41t-95.5 41t-40 96.5zM643 1251.5q0 55.5 40 95t95.5 39.5t95 -39.5t39.5 -95t-39.5 -96.5t-95 -41t-95.5 41t-40 96.5z" glyph-name="upsilondieresis" horiz-adv-x="1181" unicode="ϋ"/><glyph d="M72 485q0 211 147 357.5t353 146.5t350.5 -148.5t144.5 -359.5t-145.5 -355t-353.5 -144t-352 146t-144 357zM332 478q0 -110 67.5 -189.5t170 -79.5t170 80t67.5 194.5t-68.5 193.5t-170.5 79t-169 -84t-67 -194zM451 1087l172 330h276l-219 -330h-229z" glyph-name="omicrontonos" horiz-adv-x="1144" unicode="ό"/><glyph d="M604 201q211 0 211 350q0 244 -115 422h283q117 -209 117 -426q0 -268 -132 -416.5t-350 -148.5t-346.5 116.5t-128.5 315.5q0 53 12.5 141t12.5 117q0 90 -59 90q-27 0 -48 -10l-34 196q86 45 172 45q123 0 182 -71.5t59 -186.5l-18 -297q0 -113 49 -175t133 -62z M879 1417l-217 -330h-232l174 330h275z" glyph-name="upsilontonos" horiz-adv-x="1181" unicode="ύ"/><glyph d="M893 1085h-227q115 221 172 330h272q-96 -148 -217 -330zM1063 -16q-96 0 -183 57t-110 147q-31 -96 -107.5 -151t-185.5 -55q-188 0 -290.5 138t-102.5 364t174 489q141 -6 291 -6q-188 -227 -189 -482q0 -125 40 -194.5t110 -69.5q139 0 139 297q0 147 -6 187h264 q-6 -70 -6 -168q0 -315 141 -316q72 0 111 72t39 192q0 266 -184 482l295 6q164 -246 163 -502q0 -211 -106.5 -349t-296.5 -138z" glyph-name="omegatonos" horiz-adv-x="1560" unicode="ώ"/><glyph d="M203 1780h278q85 -117 219 -307h-243q-168 205 -254 307zM156 1026q0 215 -6 346h493q188 0 291 6l-43 -239q-78 6 -253 6t-206 -2v-322h127q236 0 320 4v-235q-127 6 -320 6h-127v-371h176q240 0 320 4v-235q-80 4 -316 4h-462q8 84 8 186l-2 160v682z" glyph-name="uni0400" horiz-adv-x="1052" unicode="Ѐ"/><glyph d="M744 1507q-56 0 -96 40.5t-40 96.5t40 95t96 39t96.5 -39t40.5 -95t-40.5 -96.5t-96.5 -40.5zM184 1644q0 56 40 95t95.5 39t95.5 -39t40 -95t-40 -96.5t-95.5 -40.5t-95.5 40.5t-40 96.5zM158 1028q0 217 -6 348h493q188 0 291 6l-43 -239q-78 4 -354 4h-105v-324h127 q236 0 320 4v-233q-84 4 -320 4h-127v-369h176q240 0 320 4v-237q-80 4 -316 4h-462q8 90 8 188l-2 158v682z" glyph-name="afii10023" horiz-adv-x="1050" unicode="Ё"/><glyph d="M385 1376h573q244 0 324 4q-4 -123 -12 -247q-143 6 -316 6h-196v-314q70 18 168 19q276 0 411.5 -132t135.5 -318t-116 -298t-296 -112q-106 0 -178 22q4 39 11 119t11 119q49 -23 111 -23t117 49t55 123q0 102 -80 152.5t-223 50.5q-76 0 -127 -14v-238q0 -258 6 -344 h-301q6 147 6 365v774h-98q-178 0 -320 -6v245q96 -2 334 -2z" glyph-name="afii10051" horiz-adv-x="1581" unicode="Ђ"/><glyph d="M412 1448q45 78 184 328h287q-23 -33 -230 -328h-241zM442 1137v-867q0 -217 4 -270h-286q2 96 2 352v672q0 221 -2 352h495q231 0 320 2q-13 -96 -29 -248q-82 6 -262 7h-242z" glyph-name="afii10052" horiz-adv-x="1009" unicode="Ѓ"/><glyph d="M840 221q182 0 331 88v-266q-150 -59 -358 -59q-311 0 -514 192.5t-203 501.5t206 512t519 203q186 0 350 -62v-274q-127 94 -337 94q-160 0 -281 -90t-162 -236h238q188 0 317 6v-239q-86 4 -317 4h-240q23 -164 146 -269.5t305 -105.5z" glyph-name="afii10053" horiz-adv-x="1277" unicode="Є"/><glyph d="M434 1044q0 -64 50 -112t126 -96t108 -69.5t134 -111.5t102 -274t-138 -297t-347 -113t-377 84q6 27 64 242q123 -106 293 -107q92 0 150 43t58 114t-52 124t-133 101t-122 78t-123 109t-82 250q0 172 124 283t335 111q154 0 289 -62v-239q-119 84 -277 84 q-84 0 -133 -39t-49 -103z" glyph-name="afii10054" horiz-adv-x="1062" unicode="Ѕ"/><glyph d="M440 991v-626q0 -272 4 -365h-286q6 129 6 365v626q0 244 -6 385h286q-4 -68 -4 -385z" glyph-name="afii10055" horiz-adv-x="602" unicode="І"/><glyph d="M440 991v-626q0 -272 4 -365h-286q6 129 6 365v626q0 244 -6 385h286q-4 -68 -4 -385zM515 1507q-56 0 -96 40.5t-40 96.5t40 95t96 39t95 -39t39 -95t-39 -96.5t-95 -40.5zM-45 1644q0 56 39 95t94 39t96 -39t41 -95t-41 -96.5t-96 -40.5t-94 40.5t-39 96.5z" glyph-name="afii10056" horiz-adv-x="602" unicode="Ї"/><glyph d="M463 1020v-993q0 -227 -119 -364.5t-328 -137.5q-102 0 -200 24v250q72 -41 169 -41t148 62.5t51 167.5v1032q0 266 -6 356h289q-4 -131 -4 -356z" glyph-name="afii10057" horiz-adv-x="598" unicode="Ј"/><glyph d="M1247 225h107q125 0 195.5 58.5t70.5 162.5t-79 156.5t-200 52.5h-94v-430zM1247 874h109q268 0 406.5 -110.5t138.5 -319t-141.5 -326.5t-393.5 -118h-397q6 141 6 399v744h-268q-33 -262 -79 -469t-82 -314.5t-118.5 -241.5t-290.5 -134q-55 0 -88 16v240q29 -6 62 -7 q76 0 142 103.5t132 355t113 684.5h751l-2 -327v-175z" glyph-name="afii10058" horiz-adv-x="1980" unicode="Љ"/><glyph d="M1284 223h102q123 0 200 58.5t77 158.5t-82 153.5t-207 53.5h-90v-424zM1290 866h109q248 0 393 -105.5t145 -316.5t-139 -327.5t-391 -116.5h-401q6 133 6 377v231h-590v-315q0 -213 4 -293h-287q6 117 6 301v719q0 238 -6 356h287q-4 -104 -4 -418v-127h590l2 181 q0 213 -6 364h284l-2 -356v-154z" glyph-name="afii10059" horiz-adv-x="2031" unicode="Њ"/><glyph d="M903 1165h-149v-301q117 125 292 125t269 -114.5t94 -313.5v-385q0 -109 6 -176h-280q4 78 4 276v275q0 92 -49.5 155.5t-139.5 63.5q-55 0 -108.5 -38t-87.5 -99v-332q0 -231 6 -301h-283q4 57 4 231v760q0 121 -2 174h-243q-85 0 -187 -6v219q100 -2 361 -2h487l303 2 l-12 -219q-141 6 -285 6z" glyph-name="afii10060" horiz-adv-x="1531" unicode="Ћ"/><glyph d="M1217 1376l-512 -659l602 -717h-373q-90 129 -133 178l-37 43q-86 100 -330 410v-283q0 -244 4 -348h-286q4 88 4 346v682q0 254 -4 348h286q-4 -98 -4 -346v-291q368 469 473 637h310zM526 1419l113 426h244q-33 -92 -150 -426h-207z" glyph-name="afii10061" horiz-adv-x="1320" unicode="Ќ"/><glyph d="M160 293v737q0 180 -8 346h282q-6 -125 -6 -352v-502l797 875h98q-4 -133 -4 -373v-731q0 -213 4 -293h-276q6 117 6 287v583l-797 -882h-100q4 92 4 305zM905 1479h-237q-6 8 -117 143t-133 160h274q63 -86 213 -303z" glyph-name="uni040D" horiz-adv-x="1474" unicode="Ѝ"/><glyph d="M647 768q175 487 234 643h299q-2 -4 -245 -564t-272.5 -615.5t-96.5 -143.5t-210 -88h-188l25 215q102 0 132 3t50 18.5t39.5 45t32 53t32 67.5t29.5 65q-401 874 -436 944h319q37 -115 256 -643zM633 1663q51 0 90 36t41 89h199q-4 -135 -98.5 -225t-229.5 -90 t-228.5 91t-97.5 224h201q2 -59 37 -92t86 -33z" glyph-name="afii10062" horiz-adv-x="1234" unicode="Ў"/><glyph d="M596 0h-432v1032q0 205 -8 344h293q-8 -164 -9 -346v-790h559v792q0 215 -8 344h291q-6 -106 -6 -342v-1034h-424v-96q0 -176 6 -299h-266l4 303v92z" glyph-name="afii10145" horiz-adv-x="1447" unicode="Џ"/><glyph d="M414 307l-123 -307h-279q80 158 172 367l453 1030h94l477 -1061q59 -135 168 -336h-319q-8 23 -123 307h-520zM848 512l-178 451l-174 -451h352z" glyph-name="afii10017" unicode="А"/><glyph d="M440 217h123q123 0 198 60.5t75 156.5t-75 154.5t-212 58.5h-109v-430zM164 0v1376h516q242 0 336 2l-19 -245q-92 8 -288 8h-269v-281h125q268 0 403.5 -107.5t135.5 -315.5t-138.5 -322.5t-390.5 -114.5h-411z" glyph-name="afii10018" horiz-adv-x="1196" unicode="Б"/><glyph d="M584 0h-432q6 123 6 362v611q0 330 -4 403h415q184 0 312.5 -89t128.5 -249q0 -94 -49.5 -168.5t-131.5 -107.5q115 -33 189 -127t74 -219q0 -197 -144.5 -306.5t-363.5 -109.5zM809 411q0 101 -62.5 162.5t-164.5 61.5h-146v-440h133q113 0 176.5 57.5t63.5 158.5z M436 819h119q82 0 133 50.5t51 133.5t-51 134t-143 51h-109v-369z" glyph-name="afii10019" horiz-adv-x="1191" unicode="В"/><glyph d="M442 1137v-867q0 -217 4 -270h-286q2 96 2 352v672q0 221 -2 352h495q231 0 320 2q-13 -96 -29 -248q-82 6 -262 7h-242z" glyph-name="afii10020" horiz-adv-x="1009" unicode="Г"/><glyph d="M319 0q0 -214 11 -395h-267q10 178 11 616h114q283 385 379 1157h729v-1157h154q0 -410 14 -616h-266q10 390 10 395h-889zM1028 1155h-260q-74 -592 -283 -932q362 0 543 -2v934z" glyph-name="afii10021" horiz-adv-x="1523" unicode="Д"/><glyph d="M434 823h127q236 0 320 4v-233q-84 4 -320 4h-127v-369h176q240 0 320 4v-237q-80 4 -316 4h-462q6 66 6 346v682q0 217 -6 348h493q188 0 291 6l-43 -239q-78 4 -354 4h-105v-324z" glyph-name="afii10022" horiz-adv-x="1050" unicode="Е"/><glyph d="M827 590h-129q-74 -64 -185.5 -309.5t-129.5 -280.5h-344q88 118 217 390t221 327q-63 35 -153 186q-8 16 -120 221t-147 252h320q115 -238 146.5 -299t41.5 -81.5t52.5 -100.5t82.5 -100h127v243q0 154 -4 338h279q-4 -225 -4 -338v-243h145q67 35 191.5 298t134.5 283 h319q-54 -74 -166 -287t-156 -277t-93 -93q93 -61 221 -337t213 -382h-344q-98 197 -156 319l-43 93q-59 129 -119 178h-147v-211q0 -121 4 -379h-279q4 213 4 379v211z" glyph-name="afii10024" horiz-adv-x="1957" unicode="Ж"/><glyph d="M500 1374q186 0 300.5 -95t114.5 -259q0 -223 -235 -305q129 -39 201.5 -128t72.5 -208q0 -182 -129 -289.5t-327 -107.5t-328 51v239q106 -66 258 -65q104 0 165.5 62.5t61.5 146.5t-61.5 131t-157.5 47q-47 0 -98 -6v217q28 -4 98 -4t137.5 51t67.5 126t-54.5 123 t-142.5 48q-145 0 -266 -76v238q136 63 322 63z" glyph-name="afii10025" horiz-adv-x="1118" unicode="З"/><glyph d="M1053 287v583l-797 -882h-100q4 92 4 305v737q0 180 -8 346h282q-6 -125 -6 -352v-502l797 875h98q-4 -133 -4 -373v-731q0 -213 4 -293h-276q6 117 6 287z" glyph-name="afii10026" horiz-adv-x="1474" unicode="И"/><glyph d="M162 293v737q0 190 -10 346h284q-8 -125 -8 -352v-502l797 875h100q-6 -199 -6 -373v-731q0 -174 6 -293h-278q6 78 6 287v583l-797 -882h-100q6 137 6 305zM410 1767h204q0 -59 34 -93t94 -34t95 34t35 93h207q-4 -139 -97.5 -229t-239.5 -90t-239 91t-93 228z" glyph-name="afii10027" horiz-adv-x="1476" unicode="Й"/><glyph d="M438 1038v-243h144q75 0 154 141.5t138.5 273t77.5 166.5h324q-47 -61 -129 -223t-164 -288t-158 -160q66 -35 115.5 -104t145.5 -247t128.5 -236.5t79.5 -117.5h-356q-51 100 -197 412q-37 80 -70.5 123t-74.5 43h-158v-172q0 -289 2 -406h-280q2 92 2 332v710 q0 242 -2 334h280q-2 -92 -2 -338z" glyph-name="afii10028" horiz-adv-x="1308" unicode="К"/><glyph d="M985 414v741h-293q-79 -602 -196.5 -885.5t-351.5 -283.5q-76 0 -105 14v238q27 -6 61 -7q76 0 140.5 101.5t131.5 357t111 686.5h777v-1028l4 -348h-285q6 145 6 414z" glyph-name="afii10029" horiz-adv-x="1423" unicode="Л"/><glyph d="M1280 868l-391 -700h-64l-399 700l-35 -563q-4 -68 -7 -175t-5 -130h-287q4 53 14.5 170t14.5 180l72 1032h210l457 -823l455 823h205l59 -1054q8 -182 25 -328h-279q-4 158 -12 301z" glyph-name="afii10030" horiz-adv-x="1695" unicode="М"/><glyph d="M1040 831v201q0 213 -6 344h287q-6 -199 -6 -356v-797q0 -20 6 -223h-287q6 104 6 293v315h-606v-315q0 -213 6 -293h-286q4 78 4 301v719q0 276 -4 356h286q-6 -104 -6 -418v-127h606z" glyph-name="afii10031" horiz-adv-x="1474" unicode="Н"/><glyph d="M92 690q0 305 207 507t515 202t516 -206t208 -510t-207 -506t-516 -202t-516 205t-207 510zM375 687q0 -208 125 -345t315.5 -137t314 137t123.5 344t-124.5 345t-314.5 138t-314.5 -137t-124.5 -345z" glyph-name="afii10032" horiz-adv-x="1630" unicode="О"/><glyph d="M164 1376h1118v-1034q0 -266 6 -342h-293q8 180 9 344v797h-562v-797q0 -215 7 -344h-293q8 197 8 346v1030z" glyph-name="afii10033" horiz-adv-x="1447" unicode="П"/><glyph d="M436 489v-137q0 -229 6 -352h-290q6 119 6 360v689q0 221 -6 327h401q233 0 371.5 -120.5t138.5 -323.5t-134 -323t-378 -120h-115zM436 1163v-465h96q111 0 179.5 65t68.5 167t-66.5 167.5t-181.5 65.5h-96z" glyph-name="afii10034" horiz-adv-x="1144" unicode="Р"/><glyph d="M834 217q194 0 333 86v-274q-147 -51 -356 -52q-313 0 -516 201t-203 507t209 511t516 205q166 0 342 -58v-282q-123 96 -323 96t-330.5 -136t-130.5 -335t132.5 -334t326.5 -135z" glyph-name="afii10035" horiz-adv-x="1280" unicode="С"/><glyph d="M393 1376h467q264 0 340 2q-6 -117 -12 -239q-141 6 -332 6h-94q-2 -98 -2 -350v-439q0 -252 8 -356h-293q6 143 6 356v430q0 258 -4 359h-96q-190 0 -332 -6v239q96 -2 344 -2z" glyph-name="afii10036" horiz-adv-x="1249" unicode="Т"/><glyph d="M334 -6q-123 0 -176 4v233l73 -2q66 0 102 6.5t65.5 35t41 49t45.5 90.5q-430 899 -465 966h328q20 -84 148.5 -368.5t134.5 -298.5q6 23 102 263t144 404h311q-119 -263 -275.5 -623t-175.5 -399q-88 -201 -184 -280.5t-219 -79.5z" glyph-name="afii10037" horiz-adv-x="1206" unicode="У"/><glyph d="M98 684q0 248 157 404.5t419 185.5q0 70 -6 149h280q-4 -57 -4 -149q266 -33 420 -187.5t154 -401.5t-156 -398.5t-418 -182.5q0 -94 2 -147h-278q6 84 6 147q-270 33 -423 182.5t-153 397.5zM381 687q0 -144 75 -240t218 -119v723q-143 -25 -218 -122.5t-75 -241.5z M1235 687q0 144 -76 241.5t-217 122.5v-723q141 23 217 119t76 240z" glyph-name="afii10038" horiz-adv-x="1617" unicode="Ф"/><glyph d="M805 176q-164 264 -189 303l-202 -332q-57 -93 -69.5 -117t-16.5 -30h-314q119 152 463 692q-27 45 -224.5 349.5t-219.5 334.5h332q64 -115 150.5 -259t117.5 -197q268 446 272 456h309q-125 -162 -442 -663l246 -387q137 -213 223 -326h-332q-6 12 -104 176z" glyph-name="afii10039" horiz-adv-x="1255" unicode="Х"/><glyph d="M1180 0h-1016v1032q0 188 -6 344h291q-6 -209 -7 -268v-875h557v799q0 201 -6 344h291q-6 -106 -6 -342v-809h156v-274q0 -240 6 -346h-264l4 303v92z" glyph-name="afii10040" horiz-adv-x="1507" unicode="Ц"/><glyph d="M846 268v224q-139 -41 -244 -41q-219 0 -328.5 93t-132.5 279q-12 96 -15 296t-7 257h289q-7 -112 -7 -310t59 -321t386 -18v365q0 168 -6 284h286q-4 -74 -4 -284v-910l8 -182h-292q8 147 8 268z" glyph-name="afii10041" horiz-adv-x="1300" unicode="Ч"/><glyph d="M168 0v1030q0 207 -8 346h282q-8 -160 -8 -346v-788h420v788q0 203 -6 346h276q-8 -96 -8 -344v-790h424v790q0 184 -10 344h280q-4 -72 -4 -344v-1032h-1638z" glyph-name="afii10042" horiz-adv-x="1980" unicode="Ш"/><glyph d="M1714 0h-1546v1032q0 205 -8 344h282q-8 -164 -8 -344v-792h420v792q0 201 -6 344h274q-6 -109 -6 -342v-794h422v794q0 150 -8 342h280q-6 -106 -6 -342v-801h164v-282q0 -240 6 -346h-264l4 303v92z" glyph-name="afii10043" horiz-adv-x="2039" unicode="Щ"/><glyph d="M870 0h-405q4 221 4 414v733h-250q-92 0 -174 -8q-4 66 -22 241q94 -4 339 -4h394v-510h104q250 0 395.5 -105.5t145.5 -316.5t-139.5 -327.5t-391.5 -116.5zM756 223h102q123 0 192.5 57.5t69.5 153.5q0 213 -274 213h-90v-424z" glyph-name="afii10044" horiz-adv-x="1490" unicode="Ъ"/><glyph d="M442 223h105q123 0 192.5 57.5t69.5 157.5t-78 154.5t-196 54.5h-93v-424zM1536 991v-626q0 -272 6 -365h-287q4 86 5 365v626q0 291 -5 385h287q-6 -100 -6 -385zM559 0h-399q6 156 6 395v617q0 233 -6 364h289q-6 -96 -7 -364v-146h109q246 0 392.5 -106.5 t146.5 -316.5t-139.5 -326.5t-391.5 -116.5z" glyph-name="afii10045" horiz-adv-x="1703" unicode="Ы"/><glyph d="M446 223h105q121 0 191.5 57.5t70.5 157.5t-79 154.5t-195 54.5h-93v-424zM446 866h107q248 0 393.5 -105.5t145.5 -316.5t-139.5 -327.5t-389.5 -116.5h-399l6 1012q0 297 -6 364h289q-6 -96 -7 -364v-146z" glyph-name="afii10046" horiz-adv-x="1196" unicode="Ь"/><glyph d="M438 221q182 0 305 105.5t146 269.5h-240q-231 0 -317 -4v239q129 -6 317 -6h238q-41 145 -162 235.5t-281 90.5q-211 0 -338 -94v274q164 61 351 62q313 0 519 -203t206 -512t-203 -501.5t-514 -192.5q-209 0 -359 59v266q150 -88 332 -88z" glyph-name="afii10047" horiz-adv-x="1263" unicode="Э"/><glyph d="M1332 215q169 0 267.5 128t98.5 335t-100.5 344t-267.5 137t-267 -136t-100 -343t100 -336t269 -129zM455 827h239q41 252 216 411t421 159q279 0 463 -209t184 -514t-182 -501t-452 -196t-448.5 174.5t-207.5 444.5h-233v-289q0 -219 6 -307h-287q4 82 4 309v703 q0 274 -4 364h287q-6 -96 -6 -364v-185z" glyph-name="afii10048" horiz-adv-x="2078" unicode="Ю"/><glyph d="M866 731v426h-118q-98 0 -163 -56.5t-65 -157.5t67.5 -156.5t164.5 -55.5h114zM866 362v170h-139l-317 -532h-353q164 199 240 315l188 293q-246 86 -245 353q0 201 138 308t355 107h418q-6 -72 -6 -344v-667q0 -285 6 -365h-291q6 118 6 362z" glyph-name="afii10049" horiz-adv-x="1304" unicode="Я"/><glyph d="M483 993q225 0 320.5 -110.5t95.5 -339.5v-221q0 -203 41 -322h-258l-12 104q-106 -127 -283 -127q-139 0 -227 84t-88 215t96.5 230.5t478.5 99.5v29q0 70 -57.5 114t-136.5 44q-129 0 -250 -72q-42 93 -84 180q139 92 364 92zM326 285q0 -55 38 -89t90 -34t106 26.5 t91 65.5v176l-141 -6q-184 -6 -184 -139z" glyph-name="afii10065" horiz-adv-x="1019" unicode="а"/><glyph d="M560 -16q-222 0 -347 173t-125 459q0 346 135 523.5t412 238.5q143 31 315 84v-256q-135 -31 -377 -92q-225 -59 -258 -283q102 103 300 103t313.5 -131t115.5 -342t-131 -344t-353 -133zM569.5 203q94.5 0 162 75.5t67.5 184.5t-60.5 179.5t-172.5 70.5t-199 -82 q-15 -35 -15 -145t61.5 -196.5t156 -86.5z" glyph-name="afii10066" horiz-adv-x="1128" unicode="б"/><glyph d="M559 0h-430q4 80 4 262v453q0 111 -8 258h307q242 0 358.5 -63.5t116.5 -196.5q0 -70 -42 -124t-111 -77q102 -20 159.5 -79.5t57.5 -141.5q0 -131 -103.5 -211t-308.5 -80zM393 174h154q158 0 158 123q0 51 -43.5 81t-112.5 30h-156v-234zM393 563h105q150 0 149 117 q0 53 -40 85t-115 32h-99v-234z" glyph-name="afii10067" horiz-adv-x="1052" unicode="в"/><glyph d="M614 973q180 0 222 4q-8 -74 -27 -250q-102 4 -209 4h-184v-385q0 -162 4 -346h-291q4 92 4 346v291l-4 336h485z" glyph-name="afii10068" horiz-adv-x="876" unicode="г"/><glyph d="M47 -231v432h82q117 133 182.5 316t104.5 456h626v-772h119v-432q0 -41 4 -144h-239q2 55 2 183.5t2 189.5h-651q0 -264 4 -373h-240q4 102 4 144zM793 201v555h-191q-41 -350 -196 -555h387z" glyph-name="afii10069" horiz-adv-x="1224" unicode="д"/><glyph d="M588 -16q-240 0 -380 137t-140 361t123.5 367.5t345.5 143.5q115 0 204.5 -40t166.5 -139.5t77 -270.5q0 -46 -10 -107h-653q16 -241 294 -241q140 0 312 86v-205q-156 -92 -340 -92zM535 788q-97 0 -154 -62t-66 -138h422q-2 88 -53.5 144t-148.5 56z" glyph-name="afii10070" horiz-adv-x="1044" unicode="е"/><glyph d="M631 258v152h-53q-33 0 -111 -137.5t-139 -272.5h-301q43 51 81 119t63.5 109.5t36.5 61t28.5 49.5t26.5 43t23.5 32.5t25 29t22.5 20.5t25.5 17t27.5 13q-47 16 -97 88.5t-119 195.5t-122 195h285q33 -82 119 -238.5t125 -156.5h53v133q0 197 -2 262h270q-2 -66 -2 -262 v-133h53q23 0 54.5 46t51 77.5t43 75.5t39 74t35 71t25.5 51h279q-75 -107 -155.5 -256t-112 -178.5t-68.5 -42.5q51 -16 110.5 -100.5t132 -211.5t115.5 -184h-301q-2 4 -17.5 38t-30.5 66.5t-83.5 169t-114.5 136.5h-53v-152q0 -195 2 -258h-272q2 84 2 258z" glyph-name="afii10072" horiz-adv-x="1548" unicode="ж"/><glyph d="M383 401q-102 0 -133 -6v193q18 -2 118 -2q182 0 181 102q1 102 -145 102t-263 -55l-22 203q127 57 310 57t286.5 -76.5t103.5 -205.5q0 -70 -47 -125.5t-119 -77.5q88 -20 141.5 -80.5t53.5 -146.5q0 -131 -114 -215t-292 -84t-333 53v217q55 -31 139 -50.5t151 -19.5 q180 0 181 115q0 102 -197 102z" glyph-name="afii10073" horiz-adv-x="933" unicode="з"/><glyph d="M121 240v505q0 94 -8 226h258q-6 -98 -6 -299v-262q377 381 569 573h108q-4 -98 -4 -317v-471q0 -147 4 -195h-254q4 66 5 242v295q-341 -341 -549 -545h-127q4 168 4 248z" glyph-name="afii10074" horiz-adv-x="1157" unicode="и"/><glyph d="M121 240v505q0 94 -8 226h258q-6 -98 -6 -299v-262q377 381 569 573h108q-4 -98 -4 -317v-471q0 -147 4 -195h-254q4 66 5 242v295q-341 -341 -549 -545h-127q4 168 4 248zM596 1282q51 0 90 36t41 89h199q-4 -135 -98.5 -225t-229.5 -90t-228.5 91t-97.5 224h201 q2 -59 37 -92t86 -33z" glyph-name="afii10075" horiz-adv-x="1159" unicode="й"/><glyph d="M408 733v-155h51q29 0 90 94.5t114.5 186t67.5 114.5h285q-49 -66 -119 -182q-90 -158 -132 -210.5t-103 -68.5q63 -20 111 -81.5t130 -212.5t141 -218h-315q-14 25 -54 94.5t-110 192.5t-106 123h-51v-121q0 -215 2 -289h-281q4 63 4 240v495l-2 238h279q-2 -59 -2 -240 z" glyph-name="afii10076" horiz-adv-x="1091" unicode="к"/><glyph d="M90 221q106 0 186 220.5t117 531.5h662q-2 -121 -2 -361v-370q0 -90 8 -242h-281q10 88 11 307v451h-189q-49 -381 -175 -577.5t-306 -196.5l-78 10v239q20 -12 47 -12z" glyph-name="afii10077" horiz-adv-x="1179" unicode="л"/><glyph d="M1167 973q0 -76 9.5 -482.5t13.5 -490.5h-246q-2 86 -5 284.5t-5 282.5q-147 -201 -254 -348h-80q-82 119 -242 352q-6 -289 -6 -571h-266q4 51 13.5 456.5t9.5 516.5h217q27 -39 141.5 -210t175.5 -261q193 295 305 471h219z" glyph-name="afii10078" horiz-adv-x="1292" unicode="м"/><glyph d="M1030 227q0 -80 4 -227h-268q4 127 4 229v172h-379v-170q0 -164 4 -231h-268q6 68 6 190v611q0 45 -4 172h266q-4 -57 -4 -168v-205h379v197q0 41 -4 176h268l-4 -172v-574z" glyph-name="afii10079" horiz-adv-x="1161" unicode="н"/><glyph d="M74 487q0 211 147 357.5t353 146.5t350.5 -148.5t144.5 -358.5t-145.5 -354t-353.5 -144t-352 145t-144 356zM334 482q0 -110 67.5 -189.5t170 -79.5t170 78.5t67.5 194.5t-68.5 195t-170.5 79t-169 -84t-67 -194z" glyph-name="afii10080" horiz-adv-x="1142" unicode="о"/><glyph d="M1024 973v-748q0 -115 8 -225h-280q4 205 4 291v448h-355v-448q0 -186 7 -291h-283q6 129 6 291v682h893z" glyph-name="afii10081" horiz-adv-x="1161" unicode="п"/><glyph d="M131 -444v1343q207 96 441 96t372.5 -137t138.5 -358t-137 -368.5t-356 -147.5q-109 0 -197 39v-467h-262zM555 205q123 0 198.5 82t75.5 206t-77.5 202.5t-198.5 78.5q-78 0 -160 -31v-493q84 -45 162 -45z" glyph-name="afii10082" horiz-adv-x="1171" unicode="р"/><glyph d="M580 -16q-221 0 -365.5 140t-144.5 360t151.5 364.5t372.5 144.5q102 0 219 -39v-252q-109 64 -215 64t-189 -83t-83 -199t79 -195.5t193 -79.5t213 59q25 -230 25 -231q-109 -53 -256 -53z" glyph-name="afii10083" horiz-adv-x="909" unicode="с"/><glyph d="M281 973h462q162 0 215 2q-8 -156 -12 -236q-147 4 -215 4h-90v-491q0 -201 4 -252h-283q4 74 5 252v491h-76q-172 0 -240 -4v236q59 -2 230 -2z" glyph-name="afii10084" horiz-adv-x="995" unicode="т"/><glyph d="M283 -403h-187l25 213q119 0 153 12q61 8 148 215q6 12 8 18q-12 29 -117.5 258.5t-197.5 431t-107 228.5h316q16 -48 111 -286t132 -335q10 29 56.5 145.5t82.5 211t85 264.5h296q-20 -43 -211.5 -489.5t-203.5 -475.5q-92 -209 -144 -278q-98 -133 -245 -133z" glyph-name="afii10085" horiz-adv-x="1097" unicode="у"/><glyph d="M819 -216q0 -151 10 -226h-260q4 41 6.5 200t4.5 226q-238 18 -374 155t-136 349t135 348.5t375 156.5q0 256 -11 418h258q-10 -389 -10 -418q229 -20 369.5 -155.5t140.5 -349.5t-140 -350t-370 -154q2 -49 2 -200zM328 488q0 -110 71.5 -187.5t180.5 -85.5v545 q-109 -10 -180.5 -86t-71.5 -186zM1061 489.5q0 110.5 -69 186.5t-175 84v-545q104 8 174 86t70 188.5z" glyph-name="afii10086" horiz-adv-x="1398" unicode="ф"/><glyph d="M995 973q-97 -122 -325 -479q31 -49 93 -146.5t109 -173.5t119 -174h-293q-33 51 -96 151.5t-96 149.5q-160 -246 -195 -301h-291q41 51 167 236t171 249q-16 27 -82.5 131.5t-102.5 162.5t-138 194h305q74 -123 184 -297q14 22 64 96t127 201h280z" glyph-name="afii10087" horiz-adv-x="1015" unicode="х"/><glyph d="M129 0v682q0 152 -6 291h285q-8 -201 -9 -291v-453h342v453q0 182 -4 291h285q-6 -102 -6 -287v-471h119l2 -281q0 -115 4 -303h-254l4 369h-762z" glyph-name="afii10088" horiz-adv-x="1200" unicode="ц"/><glyph d="M494 283q-188 0 -294 88t-106 247v179q0 127 -2 176h275l-9 -185v-106q0 -164 185 -164q111 0 164 47v232q0 104 -7 176h273q-2 -53 -2 -189v-626l6 -158h-277q7 111 7 322q-88 -39 -213 -39z" glyph-name="afii10089" horiz-adv-x="1099" unicode="ч"/><glyph d="M1487 0h-1362v743q0 154 -4 230h274q-6 -150 -6 -291v-449h279v508q0 139 -4 232h276q-8 -135 -8 -289v-451h293v449q0 127 -8 291h276q-6 -100 -6 -287v-686z" glyph-name="afii10090" horiz-adv-x="1613" unicode="ш"/><glyph d="M127 0v684q0 152 -6 291h274q-6 -150 -6 -293v-449h281v449q0 74 -4 291h274q-8 -135 -8 -287v-453h293v451q0 129 -6 291h274q-6 -100 -6 -289v-467h104v-325q0 -152 6 -267h-256q6 55 7 373h-1221z" glyph-name="afii10091" horiz-adv-x="1660" unicode="щ"/><glyph d="M776 0h-385q2 59 2 236v522h-133q-51 0 -174 -4q-8 74 -20 221q111 -2 333 -2h258q-2 -66 -2 -238v-71h131q176 0 293 -85t117 -242t-108.5 -247t-311.5 -90zM655 193h88q195 0 195 139t-209 139h-74v-278z" glyph-name="afii10092" horiz-adv-x="1275" unicode="ъ"/><glyph d="M393 664h111q188 0 305 -78t117 -242t-109.5 -254t-308.5 -90h-373q4 129 4 612v129q0 109 -4 232h262l-4 -236v-73zM393 193h53q221 0 222 141q0 137 -228 137h-47v-278zM1323 690v-516q0 -96 6 -174h-280q6 92 6 217v565q0 123 -8 191h282q-6 -86 -6 -283z" glyph-name="afii10093" horiz-adv-x="1458" unicode="ы"/><glyph d="M393 664h111q188 0 305 -78t117 -242t-109.5 -254t-308.5 -90h-373q4 129 4 612v129q0 109 -4 232h262l-4 -236v-73zM393 193h53q211 0 211 141q0 80 -58 108.5t-159 28.5h-47v-278z" glyph-name="afii10094" horiz-adv-x="1003" unicode="ь"/><glyph d="M336 184q144 0 221.5 59.5t93.5 164.5h-166q-166 0 -227 -2v184q33 -2 168 -2h221q-25 88 -102.5 141t-186.5 53q-158 0 -266 -80v232q139 53 285 53q231 0 381.5 -142.5t150.5 -362.5t-151.5 -359t-380.5 -139q-174 0 -289 55v225q104 -80 248 -80z" glyph-name="afii10095" horiz-adv-x="962" unicode="э"/><glyph d="M1255 487.5q0 122.5 -56 199.5t-149 77t-150.5 -77t-57.5 -199.5t57 -199.5t149.5 -77t149.5 77t57 199.5zM135 743q0 147 -4 230h285q-6 -84 -6 -238v-143h182q31 182 155.5 291.5t315.5 109.5t326 -148.5t135 -355t-135.5 -356t-326.5 -149.5t-314 110.5t-154 290.5 h-184v-168q0 -111 6 -217h-285l4 219v524z" glyph-name="afii10096" horiz-adv-x="1597" unicode="ю"/><glyph d="M121 662q0 143 105.5 227t312.5 84h403q-2 -63 -2 -264v-500q0 -156 4 -209h-272q8 80 8 197v143h-131l-189 -340h-333q89 100 163 204t142 175q-92 31 -151.5 108.5t-59.5 174.5zM377 652q0 -54 45 -88t113 -34h145v254h-139q-70 0 -117 -39t-47 -93z" glyph-name="afii10097" horiz-adv-x="1071" unicode="я"/><glyph d="M610 190q135 0 316 86v-202q-150 -92 -340 -92q-240 0 -380 136t-140 360t123.5 368.5t345.5 144.5q152 0 300 -99.5t148 -350.5q0 -46 -10 -107h-654q8 -119 82 -181.5t209 -62.5zM532 786q-96 0 -153 -62t-66 -138h422q-2 88 -54.5 144t-148.5 56zM428 1087l-238 326 h273l205 -326h-240z" glyph-name="uni0450" horiz-adv-x="1048" unicode="ѐ"/><glyph d="M588 -16q-240 0 -380 138t-140 364t124.5 373t346.5 147q115 0 205 -41t166.5 -143t76.5 -273q0 -46 -10 -107h-655q16 -245 294 -245q138 0 314 86v-205q-158 -94 -342 -94zM536 799q-97 0 -153.5 -64.5t-65.5 -140.5h420q-2 90 -53 147.5t-148 57.5zM176 1251.5 q0 55.5 40 95t96 39.5t96.5 -39.5t40.5 -95t-40.5 -95.5t-96.5 -40t-96 40t-40 95.5zM602 1251.5q0 55.5 41 95t96.5 39.5t95 -39.5t39.5 -95t-39.5 -95.5t-95 -40t-96.5 40t-41 95.5z" glyph-name="afii10071" horiz-adv-x="1044" unicode="ё"/><glyph d="M414 1276h94q145 0 213 2v-180q-63 2 -205 2h-102v-236q128 123 290 123t255.5 -146.5t93.5 -400.5t-109.5 -463.5t-273.5 -308.5q-34 34 -164 174q281 207 280 615q0 150 -43 225.5t-116 75.5q-100 0 -213 -119v-387q0 -170 6 -252h-287q8 59 8 242v858q-74 0 -108 -2 v180l108 -2q0 82 -14 172h297q-10 -63 -10 -172z" glyph-name="afii10099" horiz-adv-x="1165" unicode="ђ"/><glyph d="M403 743v-370q1 -219 9 -373h-291q10 145 10 375v248l-6 350h438q211 0 268 4q-16 -154 -26 -242l-285 8h-117zM563 1087h-235q135 217 204 326h271q-138 -189 -240 -326z" glyph-name="afii10100" horiz-adv-x="874" unicode="ѓ"/><glyph d="M578 -16q-229 0 -380 139t-151 359t150.5 362.5t380.5 142.5q147 0 286 -53v-232q-113 80 -266 80q-90 0 -177 -57t-114 -137h221q135 0 170 2v-184q-61 2 -227 2h-168q16 -104 92.5 -164t222.5 -60t250 80v-225q-115 -55 -290 -55z" glyph-name="afii10101" horiz-adv-x="964" unicode="є"/><glyph d="M373 719q0 -37 41 -66.5t99 -57.5t116.5 -64.5t99.5 -103.5t41 -157q0 -137 -103 -215t-291 -78t-300 66q8 37 23.5 109.5t23.5 109.5q119 -90 248 -90q61 0 98 26.5t37 63.5t-39 65.5t-83 50.5q-159 78 -217 149t-58 192t98 196.5t272 75.5q111 0 252 -47v-217 q-127 74 -242 74q-55 0 -85.5 -22.5t-30.5 -59.5z" glyph-name="afii10102" horiz-adv-x="856" unicode="ѕ"/><glyph d="M141 207v553q0 152 -10 213h285q-6 -80 -6 -207v-559q0 -139 6 -207h-283q8 68 8 207zM133 1258q0 62 43.5 105.5t105.5 43.5t105 -43.5t43 -105.5t-43 -105t-105 -43t-105.5 43t-43.5 105z" glyph-name="afii10103" horiz-adv-x="561" unicode="і"/><glyph d="M164 207v553q0 137 -10 213h284q-6 -80 -6 -207v-559q0 -139 6 -207h-282q8 68 8 207zM-47 1251.5q0 55.5 40 95t96 39.5t96 -39.5t40 -95t-40 -95.5t-96 -40t-96 40t-40 95.5zM379 1251.5q0 55.5 41 95t96 39.5t95 -39.5t40 -95t-40 -95.5t-95 -40t-96 40t-41 95.5z" glyph-name="afii10104" horiz-adv-x="604" unicode="ї"/><glyph d="M133 1258q0 62 43.5 105.5t105.5 43.5t105 -43.5t43 -105.5t-43 -105t-105 -43t-105.5 43t-43.5 105zM418 762v-647q0 -429 -128 -501.5t-235 -72.5h-184v219h119q160 0 160 260v738q0 141 -9 215h283q-6 -74 -6 -211z" glyph-name="afii10105" horiz-adv-x="561" unicode="ј"/><glyph d="M1034 188h80q88 0 139.5 39t51.5 102.5t-51.5 101.5t-123.5 38t-96 -2v-279zM1139 664q203 0 315.5 -82t112.5 -241t-109.5 -250t-316.5 -91h-381q4 127 4 387v371h-162q-109 -776 -459 -776q-29 0 -59 6l-31 6v239q18 -12 47 -12q94 0 174 223.5t117 528.5h643l-2 -168 v-92l2 -51q37 2 105 2z" glyph-name="afii10106" horiz-adv-x="1640" unicode="љ"/><glyph d="M1020 195h80q94 0 146 35.5t52 97.5t-54 98.5t-126 36.5t-98 -2v-266zM403 401v-206q0 -88 5 -195h-273q6 68 6 199v526q0 150 -6 248h273q-4 -115 -5 -266v-105h363v111q0 129 -4 260h262q-4 -94 -4 -256v-55q35 2 104 2q205 0 317.5 -84t112.5 -241t-109.5 -248 t-318.5 -91h-364q2 55 2 223v178h-361z" glyph-name="afii10107" horiz-adv-x="1617" unicode="њ"/><glyph d="M135 1311h-94q20 49 61 151h310q-8 -68 -9 -207v-399q119 133 299 133t273.5 -116.5t93.5 -325.5v-371q0 -109 6 -176h-282q6 94 6 289v209q0 272 -189 272q-61 0 -117.5 -43t-89.5 -111v-442q0 -45 7 -174h-281q6 82 6 221v1090zM33 1280h698v-184h-698v184z" glyph-name="afii10108" horiz-adv-x="1175" unicode="ћ"/><glyph d="M408 733v-155h51q29 0 90 94.5t114.5 186t67.5 114.5h285q-49 -66 -119 -182q-90 -158 -132 -210.5t-103 -68.5q63 -20 111 -81.5t130 -212.5t141 -218h-315q-14 25 -54 94.5t-110 192.5t-106 123h-51v-121q0 -215 2 -289h-281q4 63 4 240v495l-2 238h279q-2 -59 -2 -240 zM666 1087h-238q70 109 205 326h270q-108 -150 -237 -326z" glyph-name="afii10109" horiz-adv-x="1091" unicode="ќ"/><glyph d="M135 772q0 78 -4 201h268q-4 -51 -4 -199v-373q311 360 502 580h143q-2 -92 -2 -305v-494q0 -137 2 -182h-266l4 199v338q-319 -357 -485 -545h-160l2 188v592zM274 1413h271q27 -41 205 -328h-238q-136 189 -238 328z" glyph-name="uni045D" horiz-adv-x="1150" unicode="ѝ"/><glyph d="M283 -403h-187l25 213q119 0 153 12q61 8 148 215q6 12 8 18q-12 29 -117.5 258.5t-197.5 431t-107 228.5h316q16 -48 111 -286t132 -335q10 29 56.5 145.5t82.5 211t85 264.5h296q-20 -43 -211.5 -490t-237.5 -553t-87 -153q-119 -180 -268 -180zM574 1284q52 0 90 36 t41 89h198q-4 -135 -98 -225t-229 -90t-228.5 91t-97.5 224h201q2 -59 36.5 -92t86.5 -33z" glyph-name="afii10110" horiz-adv-x="1116" unicode="ў"/><glyph d="M727 0v-98q0 -195 6 -297h-291q6 131 7 297v98h-316v717q0 131 -6 256h287q-6 -154 -6 -256v-477h342v477q0 55 -5 256h287q-6 -104 -6 -252v-721h-299z" glyph-name="afii10193" horiz-adv-x="1167" unicode="џ"/><glyph d="M956 1479h-237q-160 217 -238 325h269q23 -37 64.5 -102.5t76 -120.5t65.5 -102zM1933 1376q-380 -1026 -518 -1380h-172q-47 131 -142.5 391t-142.5 389l-290 -780h-170q-459 1217 -523 1380h283q55 -156 168 -470t168 -472q14 25 39 70q23 63 92.5 266t108.5 313 q-78 209 -117 293h284q169 -461 304 -844l49 -98q106 303 313 942h266z" glyph-name="Wgrave" horiz-adv-x="1910" unicode="Ẁ"/><glyph d="M1212 973h273q-53 -117 -103 -244l-280 -745h-92l-258 612l-250 -612h-99l-299 757q-31 78 -98 232h301q12 -51 58 -178l135 -377l207 555h112q16 -47 104.5 -268.5t108.5 -284.5l127 387q53 164 53 166zM641 1087l-240 326h273q12 -25 102 -163t103 -163h-238z" glyph-name="wgrave" horiz-adv-x="1490" unicode="ẁ"/><glyph d="M977 1479h-236q135 217 205 325h271zM1933 1376q-380 -1026 -518 -1380h-172q-47 131 -142.5 391t-142.5 389l-290 -780h-170q-459 1217 -523 1380h283q55 -156 168 -470t168 -472q14 25 39 70q23 63 92.5 266t108.5 313q-78 209 -117 293h284q169 -461 304 -844l49 -98 q106 303 313 942h266z" glyph-name="Wacute" horiz-adv-x="1910" unicode="Ẃ"/><glyph d="M1212 973h273q-53 -117 -103 -244l-280 -745h-92l-258 612l-250 -612h-99l-299 757q-31 78 -98 232h301q12 -51 58 -178l135 -377l207 555h112q16 -47 104.5 -268.5t108.5 -284.5l127 387q53 164 53 166zM1124 1413l-237 -326h-238l205 326h270z" glyph-name="wacute" horiz-adv-x="1490" unicode="ẃ"/><glyph d="M1173 1509q-56 0 -96.5 40t-40.5 95.5t40 95.5t96 40t95.5 -40t39.5 -95.5t-39 -95.5t-95 -40zM610 1644.5q0 55.5 40 95.5t95.5 40t96.5 -40t41 -95.5t-41 -95.5t-96.5 -40t-95.5 40t-40 95.5zM1933 1376q-380 -1026 -518 -1380h-172q-47 131 -142.5 391t-142.5 389 l-290 -780h-170q-459 1217 -523 1380h283q55 -156 168 -470t168 -472q14 25 39 70q23 63 92.5 266t108.5 313q-78 209 -117 293h284q169 -461 304 -844l49 -98q106 303 313 942h266z" glyph-name="Wdieresis" horiz-adv-x="1910" unicode="Ẅ"/><glyph d="M1212 973h273q-53 -117 -103 -244l-280 -745h-92l-258 612l-250 -612h-99l-299 757q-31 78 -98 232h301q12 -51 58 -178l135 -377l207 555h112q16 -47 104.5 -268.5t108.5 -284.5l127 387q53 164 53 166zM412 1251.5q0 55.5 40 95t95 39.5t96 -39.5t41 -95t-41 -95.5 t-96 -40t-95 40t-40 95.5zM838 1251.5q0 55.5 40 95t96 39.5t95 -39.5t39 -95t-39 -95.5t-95 -40t-96 40t-40 95.5z" glyph-name="wdieresis" horiz-adv-x="1490" unicode="ẅ"/><glyph d="M510 315v281l-326 522q-90 147 -172 258h332q38 -85 158.5 -283t154.5 -257l217 364q49 82 99 176h307q-8 -12 -56 -82.5t-81 -124.5l-359 -571v-283q1 -184 7 -315h-285q4 213 4 315zM545 1479l-240 327h270q12 -23 102.5 -162t102.5 -165h-235z" glyph-name="Ygrave" horiz-adv-x="1292" unicode="Ỳ"/><glyph d="M197 1413h270q29 -45 98.5 -156.5t106.5 -169.5h-236zM283 -403h-187l25 213q119 0 153 12q61 8 148 215q6 12 8 18q-12 29 -117.5 258.5t-197.5 431t-107 228.5h316q16 -48 111 -286t132 -335q10 29 56.5 145.5t82.5 211t85 264.5h296q-20 -43 -211.5 -490t-237.5 -553 t-87 -153q-119 -180 -268 -180z" glyph-name="ygrave" horiz-adv-x="1097" unicode="ỳ"/><glyph d="M39 606h952v-219h-952v219z" glyph-name="endash" horiz-adv-x="1028" unicode="–"/><glyph d="M-8 606h1962v-219h-1962v219z" glyph-name="emdash" horiz-adv-x="1945" unicode="—"/><glyph d="M4 606h1847v-219h-1847v219z" glyph-name="afii00208" horiz-adv-x="1890" unicode="―"/><glyph d="M113 1032q0 223 143 463q10 0 87 -26.5t85 -26.5q-68 -190 -68 -322t23 -221l-250 -45q-20 88 -20 178z" glyph-name="quoteleft" horiz-adv-x="524" unicode="‘"/><glyph d="M412 1317q0 -227 -144 -479l-172 53q68 181 68 315t-21 230l246 45q23 -86 23 -164z" glyph-name="quoteright" horiz-adv-x="524" unicode="’"/><glyph d="M147 129q0 90 -16 158q121 20 268 47q15 -60 15 -168t-54.5 -250.5t-138.5 -253.5l-172 74q98 201 98 393z" glyph-name="quotesinglbase" horiz-adv-x="524" unicode="‚"/><glyph d="M813 1022q0 -90 16 -158q-121 -20 -268 -47q-14 59 -14 167t54 251t138 254l172 -74q-98 -201 -98 -393zM129 984q0 108 54.5 251t138.5 254l172 -74q-98 -201 -99 -393q0 -90 17 -158q-121 -20 -269 -47q-14 59 -14 167z" glyph-name="quotedblleft" horiz-adv-x="937" unicode="“"/><glyph d="M147 1286q0 90 -16 158q121 20 268 47q15 -59 15 -167t-54.5 -251t-138.5 -254l-172 74q98 201 98 393zM565 1286q0 90 -16 158q121 20 268 47q14 -59 14 -167t-54 -251t-138 -254l-172 74q98 201 98 393z" glyph-name="quotedblright" horiz-adv-x="937" unicode="”"/><glyph d="M147 129q0 90 -16 158q121 20 268 47q15 -60 15 -168t-54.5 -250.5t-138.5 -253.5l-172 74q98 201 98 393zM565 129q0 90 -16 158q121 20 268 47q14 -60 14 -168t-54 -250.5t-138 -253.5l-172 74q98 201 98 393z" glyph-name="quotedblbase" horiz-adv-x="937" unicode="„"/><glyph d="M322 856q-150 0 -259 -10v194q184 -8 256 -8q0 135 -10 289h217q-10 -170 -10 -289q86 0 258 8v-194q-98 10 -260 10v-33l8 -448v-117q0 -111 2 -156h-213q2 45 2 156v131l9 438v29z" glyph-name="dagger" horiz-adv-x="837" unicode="†"/><glyph d="M338 702q0 68 2 121l4 54q-168 -1 -256 -11v201q106 -10 256 -10l-10 264h217l-10 -264q104 0 256 8v-197q-172 8 -256 9l2 -56q2 -55 2 -106l-4 -166q166 0 256 8v-197q-188 8 -256 9q4 -57 10 -267h-217q6 223 10 267q-76 0 -256 -9v197q123 -8 256 -8q-6 85 -6 153z " glyph-name="daggerdbl" horiz-adv-x="886" unicode="‡"/><glyph d="M154 536q0 110 77.5 188.5t186 78.5t186.5 -78.5t78 -188.5t-78 -188t-186.5 -78t-186 78t-77.5 188z" glyph-name="bullet" horiz-adv-x="841" unicode="•"/><glyph d="M162 147.5q0 71.5 51 124t123 52.5t123 -52t51 -122t-52 -123.5t-123 -53.5t-122 51.5t-51 123zM813 147.5q0 71.5 52.5 124t124 52.5t121.5 -52t50 -122t-51 -123.5t-123 -53.5t-123 51.5t-51 123zM1468 147.5q0 71.5 52.5 124t124 52.5t122 -52t50.5 -122t-51.5 -123.5 t-123 -53.5t-123 51.5t-51.5 123z" glyph-name="ellipsis" horiz-adv-x="1976" unicode="…"/><glyph d="M467 0h-221q74 104 494.5 678.5t504.5 695.5h223zM274 1034q0 -76 41 -125t105 -49t105.5 52t41.5 124t-44 120t-105.5 48t-102.5 -47t-41 -123zM80 1033q0 151 99.5 253.5t241.5 102.5t240.5 -101.5t98.5 -252.5t-98.5 -253t-242 -102t-241.5 101t-98 252zM1147 336 q0 -74 41 -123t105 -49t105.5 49t41.5 124t-41 122t-105 47t-105.5 -48t-41.5 -122zM954 337q0 151 98.5 253t240.5 102t240.5 -102t98.5 -252t-98 -252t-240 -102t-241 101t-99 252zM1913 337q0 -73 41 -123t105 -50t106.5 49t42.5 123t-42 122t-105.5 48t-105.5 -48 t-42 -121zM1722 337q0 151 98.5 253t240.5 102t240.5 -102t98.5 -252t-99 -252t-240.5 -102t-240 101t-98.5 252z" glyph-name="perthousand" horiz-adv-x="2480" unicode="‰"/><glyph d="M659 39l-542 428v41q180 145 540 432v-246q-43 -35 -129 -103.5t-129 -103.5q201 -154 260 -200v-248z" glyph-name="guilsinglleft" horiz-adv-x="847" unicode="‹"/><glyph d="M203 694v248q49 -43 542 -432v-41l-544 -430v248l260 202z" glyph-name="guilsinglright" horiz-adv-x="847" unicode="›"/><glyph d="M-371 0l957 1368h215q-488 -700 -959 -1368h-213z" glyph-name="fraction" horiz-adv-x="423" unicode="⁄"/><glyph d="M61 612h136q-2 23 -2 64t2 61h-136v137h150q53 244 202.5 372t366.5 128q131 0 267 -45v-252q-103 76 -237 76t-220 -77t-107 -202h420q-4 -47 -12 -137h-426q-2 -20 -2 -62t2 -63h422q-2 -41 -10 -133h-394q23 -125 107 -200.5t198 -75.5q158 0 261 71q4 -76 16 -243 q-121 -45 -287 -45q-229 0 -375.5 126t-191.5 367h-150v133z" glyph-name="Euro" horiz-adv-x="1112" unicode="€"/><glyph d="M1485 307v172h645v-172h-645zM422 287q0 -170 6 -287h-276q4 80 4 293v731q0 240 -4 373h98l797 -875v502q0 227 -7 352h283q-8 -166 -8 -346v-737q0 -213 4 -305h-100l-797 882v-583zM1417 955q0 155 112.5 262.5t271.5 107.5t269.5 -108.5t110.5 -264.5t-111.5 -261 t-271.5 -105t-270.5 107t-110.5 262zM1618 950q0 -80 52 -138t130 -58t129 58t51 142t-52 142.5t-130 58.5t-129 -62.5t-51 -142.5z" glyph-name="afii61352" horiz-adv-x="2222" unicode="№"/><glyph d="M776 1356q282 0 483 -200t201 -482t-197.5 -483t-480.5 -201t-481.5 198.5t-199.5 480.5t196 484.5t479 202.5zM778 123q225 0 383 160.5t158 386.5t-155.5 388.5t-381.5 162.5t-381 -160t-157 -385t153.5 -389t380.5 -164zM557 1004h258q135 0 208 -65t73 -177t-74 -176 t-211 -64h-80v-92q0 -92 4 -129h-178l2 109v401l-2 127v66zM731 655h62q53 0 90 30t37 78t-34 78.5t-93 30.5h-62v-217z" glyph-name="uni2117" horiz-adv-x="1581" unicode="℗"/><glyph d="M1198 741q0 317 -10 369q-113 -172 -166 -256h-43q-27 41 -79 125t-79 127l-2 -70q-8 -136 -8 -295h-166q4 55 7 145t9.5 252t8.5 242h121q35 -59 105.5 -174.5t104.5 -173.5l203 348h125l27 -639h-158zM571 1233h-178v-332q0 -117 2 -160h-172q6 88 6 158v334h-170v143 h512v-143z" glyph-name="trademark" horiz-adv-x="1470" unicode="™"/><glyph d="M707 0h-297q-256 0 -330 -6v237q84 -6 248 -6h102q-133 86 -213 229.5t-80 293.5q0 309 210 503.5t515 194.5t511 -203t206 -495q0 -154 -84 -297.5t-215 -225.5h88q180 0 264 6v-237q-76 6 -348 6h-278v244q129 80 207.5 213t78.5 278q0 201 -125 337t-314 136 t-312 -138t-121 -335q2 -150 80 -281.5t207 -209.5v-244z" glyph-name="uni2126" horiz-adv-x="1712" unicode="Ω"/><glyph d="M356 639v-377q61 -111 197.5 -172t280.5 -61q289 0 475 215h139q-219 -260 -621 -260q-190 0 -361 78.5t-283.5 236.5t-112.5 358q0 293 226 485.5t535 192.5q201 0 369 -83t273.5 -243.5t111.5 -369.5h-1229zM1305 686v367q-41 102 -180 166.5t-287 64.5t-287 -61.5 t-195 -173.5v-363h949z" glyph-name="estimated" horiz-adv-x="1658" unicode="℮"/><glyph d="M1200 1368h215q-639 -913 -958 -1368h-213q317 455 956 1368zM485 1225v-525q0 -86 4 -125h-202v586q-51 -18 -181 -71q-10 51 -26 149q149 59 309 133h98q-2 -31 -2 -147zM1382 561q0 80 -93 80t-173 -47l-10 170q104 39 216 39t188.5 -53.5t76.5 -151.5 q0 -129 -151 -186q76 -18 126 -67.5t50 -123.5q0 -102 -85 -164.5t-218 -62.5t-215 39q4 53 8 164q68 -45 180 -45q49 0 86 27.5t37 67.5t-34 64.5t-83 24.5t-65 -2v145l43 -2q49 0 82.5 23.5t33.5 60.5z" glyph-name="onethird" horiz-adv-x="1679" unicode="⅓"/><glyph d="M1237 1368h215q-639 -913 -958 -1368h-215q319 455 958 1368zM1411 561q0 80 -93 80t-173 -47l-10 170q103 39 215 39t189 -53.5t77 -151.5q0 -129 -152 -186q76 -18 126 -67.5t50 -123.5q0 -102 -85 -164.5t-218 -62.5t-215 39q4 53 8 164q68 -45 181 -45q49 0 86 27.5 t37 67.5t-34 64.5t-83 24.5t-66 -2v145l43 -2q49 0 83 23.5t34 60.5zM51 571v125q8 8 40 36t45.5 41t44 42t46 46.5t73.5 80t58 142.5q0 46 -32 79t-102 33t-148 -57q-2 55 -10 182q102 49 227 49t200.5 -68.5t75.5 -189.5q0 -67 -27.5 -111.5t-41 -65t-49 -56t-46 -47 t-54.5 -51.5t-46 -42h146q78 0 145 6v-174h-545z" glyph-name="twothirds" horiz-adv-x="1708" unicode="⅔"/><glyph d="M1049 590q0 102 74.5 163.5t192.5 61.5t192.5 -61.5t74.5 -167.5t-119 -162q150 -61 150 -195q0 -102 -82 -169.5t-215 -67.5t-215 65.5t-82 167.5q0 63 39 116.5t106 80.5q-116 66 -116 168zM1393 1368l-961 -1368h-213q508 723 957 1368h217zM1214 247q0 -40 30 -66.5 t73 -26.5t72.5 26.5t29.5 65.5v10q0 35 -31.5 59.5t-74.5 28.5q-41 -4 -70 -30.5t-29 -66.5zM1401 580q0 35 -22.5 57t-60.5 22t-62.5 -22.5t-24.5 -54.5q0 -74 102 -95q68 30 68 93zM485 1227v-525q0 -88 4 -127h-202v588q-88 -39 -181 -71q-12 55 -26 149q104 39 309 133 h98q-2 -33 -2 -147z" glyph-name="oneeighth" horiz-adv-x="1697" unicode="⅛"/><glyph d="M1300 154q43 0 72 26.5t29 67.5q0 82 -107 96q-39 -4 -68.5 -30.5t-29.5 -65.5t30.5 -66.5t73.5 -27.5zM1299 659q-38 0 -61.5 -22.5t-23.5 -54.5q1 -73 103 -93q68 29 67 93q0 33 -23.5 55t-61.5 22zM1032 588q0 104 76 166.5t192.5 62.5t191.5 -62.5t75 -156.5 q0 -121 -121 -172q150 -61 149 -197q0 -102 -81.5 -169.5t-213.5 -67.5t-214 66.5t-82 168.5q0 135 143 197q-115 60 -115 164zM266 1210q-94 0 -172 -45l-10 170q104 39 216 39t189.5 -54t77.5 -153q0 -127 -151 -184q74 -18 124 -67.5t50 -122.5q0 -104 -85 -167t-216 -63 t-217 41q8 40 8 164q68 -45 186 -45t117 94q0 39 -34 64.5t-97 25.5l-51 -2v146l43 -2q117 0 116 81q0 80 -94 80zM438 0h-215l959 1368h215z" glyph-name="threeeighths" horiz-adv-x="1679" unicode="⅜"/><glyph d="M1014 590q0 102 74.5 163.5t192.5 61.5t192.5 -61.5t74.5 -167.5t-118 -162q150 -61 149 -195q0 -102 -82 -169.5t-215 -67.5t-215 65.5t-82 167.5q0 63 39 116.5t106 80.5q-116 66 -116 168zM446 1198h-145q-12 -71 -18 -133q29 8 59 8q121 0 190.5 -63.5t69.5 -184 t-92 -194.5t-212 -74t-230 37q8 111 10 166q66 -41 164 -41q143 0 143 105t-152 106q-82 0 -135 -12q41 295 54 448h288q96 0 123 2v-2l-8 -170q-35 2 -109 2zM1161 1368h215q-639 -913 -958 -1368h-213q317 455 956 1368zM1180 247q0 -40 29.5 -66.5t72.5 -26.5t72.5 26.5 t29.5 65.5v10q0 35 -31.5 59.5t-74.5 28.5q-41 -4 -69.5 -30.5t-28.5 -66.5zM1366 580q0 35 -22.5 57t-60.5 22t-62.5 -22.5t-24.5 -54.5q0 -74 102 -95q68 30 68 93z" glyph-name="fiveeighths" horiz-adv-x="1662" unicode="⅝"/><glyph d="M1001 590q0 102 75 163.5t193 61.5t192.5 -61.5t74.5 -167.5t-119 -162q150 -61 150 -195q0 -102 -83 -169.5t-215 -67.5t-214 65.5t-82 167.5q0 63 39 116.5t106 80.5q-117 66 -117 168zM1358 1368l-961 -1368h-213q508 723 957 1368h217zM221 1186q-78 0 -104 -2 l-8 182h628q-68 -133 -218 -465t-152 -334h-209q34 66 72 146t225 473h-234zM1167 247q0 -40 30 -66.5t73 -26.5t72.5 26.5t29.5 65.5v10q0 35 -31.5 59.5t-74.5 28.5q-41 -4 -70 -30.5t-29 -66.5zM1354 580q0 35 -22.5 57t-61.5 22t-62.5 -22.5t-23.5 -54.5q0 -74 102 -95 q68 30 68 93z" glyph-name="seveneighths" horiz-adv-x="1650" unicode="⅞"/><glyph d="M525 1235q-167 0 -308 -78q-31 127 -57 219q190 90 391 90q285 0 452.5 -192t167.5 -524t-170 -548t-469 -216q-193 0 -325.5 131t-132.5 327t142 332.5t359 134.5q174 -2 306 -118q4 16 4 47q0 166 -96.5 280.5t-263.5 114.5zM568 205q106 0 188 95t96 255 q-39 57 -113.5 94t-146.5 37q-117 0 -189.5 -67t-72.5 -173t66 -173.5t172 -67.5z" glyph-name="partialdiff" horiz-adv-x="1277" unicode="∂"/><glyph d="M1354 0h-1342q92 184 134 279t254 582t235 536h94l475 -1080q103 -229 150 -317zM958 225l-286 742q-127 -338 -289 -742h575z" glyph-name="uni2206" horiz-adv-x="1366" unicode="∆"/><glyph d="M1274 1047v-893q0 -260 6 -371h-289q4 86 4 373v966h-559v-964q0 -244 6 -375h-290q6 166 6 375v889h-119l-2 329h1409q-31 -161 -68 -329h-104z" glyph-name="product" horiz-adv-x="1468" unicode="∏"/><glyph d="M885 -299h-858q168 281 503 846l-491 829h735q285 0 385 4l-29 -223q-221 4 -344 4h-307q188 -317 352 -600q-207 -352 -382 -647h493l211 4v-225q-114 8 -268 8z" glyph-name="summation" horiz-adv-x="1247" unicode="∑"/><glyph d="M94 616h889v-221h-889v221z" glyph-name="minus" horiz-adv-x="1075" unicode="−"/><glyph d="M72 666l403 157l303 -805l414 1637h242l-502 -1921h-305l-324 780l-164 -63z" glyph-name="radical" horiz-adv-x="1452" unicode="√"/><glyph d="M1538 628q0 -150 -100.5 -255t-253.5 -105q-209 0 -373 217q-90 -115 -178 -166t-199 -51q-154 0 -250 105.5t-96 257.5t104.5 252t256.5 100q115 0 202.5 -52t175.5 -161q88 104 172 158.5t193 54.5q150 0 248 -102.5t98 -252.5zM297 624.5q0 -69.5 44.5 -115.5 t106.5 -46t123.5 45t108.5 115q-47 63 -97.5 105t-77 51t-56.5 9q-66 0 -109 -47t-43 -116.5zM1164 463q64 0 103.5 48t39.5 117.5t-42.5 114.5t-101.5 45t-97 -32.5t-53.5 -47t-43 -46t-35.5 -39.5q68 -84 117 -122t113 -38z" glyph-name="infinity" horiz-adv-x="1624" unicode="∞"/><glyph d="M643 1636q76 0 127 -22q-4 -131 -8 -197q-35 21 -89 21q-106 1 -132.5 -90.5t-26.5 -235.5t13.5 -435.5t13.5 -424.5t-13 -281.5t-90.5 -252t-253.5 -103.5q-94 0 -151 27q0 104 6 206q47 -26 107 -26t89 24.5t44.5 90t15.5 215.5q0 149 -12.5 479t-12.5 495 q0 510 373 510z" glyph-name="integral" horiz-adv-x="831" unicode="∫"/><glyph d="M741 840q92 0 136 108q109 -14 176 -26q-16 -119 -102.5 -203t-187.5 -84t-171 30.5t-123 61.5t-100 31q-109 0 -144 -103q-111 16 -168 25q23 125 107 204t192 79t222 -61.5t163 -61.5zM741 408q92 0 136 108q68 -12 176 -27q-16 -119 -103.5 -202.5t-197.5 -83.5 t-227 61.5t-160 61.5q-104 0 -140 -105q-111 16 -168 25q23 125 107 204.5t192 79.5t219 -61t166 -61z" glyph-name="approxequal" horiz-adv-x="1112" unicode="≈"/><glyph d="M98 219v205h320l112 209h-432v203h543q8 16 52 95t55 95h176l-105 -190h197v-203h-305l-113 -209h418v-205h-527q-55 -110 -100 -182h-180l100 182h-211z" glyph-name="notequal" horiz-adv-x="1120" unicode="≠"/><glyph d="M1004 274l-910 457v92q55 27 441.5 224.5t468.5 234.5v-244l-586 -260l586 -258v-246zM98 0v209h916v-209h-916z" glyph-name="lessequal" horiz-adv-x="1112" unicode="≤"/><glyph d="M104 522l584 258l-584 260v246l910 -459v-92l-910 -459v246zM94 0v209h918v-209h-918z" glyph-name="greaterequal" horiz-adv-x="1112" unicode="≥"/><glyph d="M537 -14l-471 698q33 53 235.5 350t235.5 352h75l471 -702q-29 -47 -232.5 -343t-238.5 -355h-75zM350 684l223 -365l224 367q-20 37 -109.5 177.5t-114.5 183.5z" glyph-name="lozenge" horiz-adv-x="1150" unicode="◊"/><glyph d="M418 762v-647q0 -429 -128 -501.5t-235 -72.5h-184v219h119q160 0 160 260v738q0 141 -9 215h283q-6 -74 -6 -211z" glyph-name="uniF6BE" horiz-adv-x="563" unicode=""/><glyph d="M274 -133l252 6q12 -31 13 -72q0 -117 -144 -256l-176 64q39 45 56 82t17 89t-18 87z" glyph-name="uniF6C3" horiz-adv-x="849" unicode=""/><glyph d="M59 762v211h164v94q0 197 94.5 302.5t266.5 105.5q104 0 231 -31l-39 -209q-55 29 -132 29t-117 -52.5t-40 -134.5v-104h242l-41 -211h-201v-555q0 -154 5 -207h-273q4 180 4 207v555h-164zM899 207v553q0 137 -10 213h285q-6 -80 -7 -207v-559q0 -139 7 -207h-283 q8 68 8 207z" glyph-name="uniFB01" horiz-adv-x="1304" unicode="ﬁ"/><glyph d="M59 762v211h164v94q0 197 94.5 302.5t266.5 105.5q104 0 231 -31l-39 -209q-55 29 -132 29t-117 -52.5t-40 -134.5v-104h242l-41 -211h-201v-555q0 -154 5 -207h-273q4 180 4 207v555h-164zM1151 1268v-1061q0 -166 6 -207h-268q4 41 4 207v1104h-100l63 151h303 q-8 -40 -8 -194z" glyph-name="uniFB02" horiz-adv-x="1310" unicode="ﬂ"/><glyph glyph-name="glyph559" horiz-adv-x="468"/><glyph d="M807 1208h-668v170h668v-170z" glyph-name="glyph560" horiz-adv-x="972"/><glyph d="M1233 743v-694q-217 -74 -406 -74q-319 0 -527 197t-208 511t209 515t549 201q178 0 340 -53v-269q-160 84 -330 84q-223 0 -354 -133t-131 -336t128 -342t331 -139q86 0 137 27v299h-150l-98 -2l12 208h498z" glyph-name="glyph561"/><glyph d="M166 1661q0 61 41 101t101 40t102 -41t43 -100q0 -59 -41 -100q-40 -41 -102 -41t-103 40t-41 101zM440 991v-626q0 -272 4 -365h-286q6 129 6 365v626q0 244 -6 385h286q-4 -68 -4 -385z" glyph-name="glyph562" horiz-adv-x="602"/><glyph d="M502 1020v-547q0 -229 -103.5 -361t-314.5 -132q-84 0 -199 24v250q72 -41 164 -41q174 0 174 229v578q0 266 -6 356h289q-4 -131 -4 -356z" glyph-name="glyph563" horiz-adv-x="661"/><glyph d="M809 -25q-305 0 -511 205t-206 508t207 507t515 204t515 -206t207 -509q0 -164 -66.5 -306t-183.5 -241q82 -94 311 -301h-325q-129 160 -162 197q-147 -58 -301 -58zM1253 676q0 217 -126 355t-315 138t-313 -137t-124 -345t124 -345t314 -137q68 0 129 20 q-125 139 -240 238h299q49 -65 109 -133q143 129 143 346z" glyph-name="glyph564" horiz-adv-x="1630"/><glyph d="M432 1040q0 -59 50 -106.5t134 -101.5t124 -83.5t127 -113.5t87 -261t-139 -290t-345 -113t-378 82q22 101 62 244q121 -109 295 -109q70 0 139 49t69 115t-52 119t-133 101t-122 78t-123 109t-82 250q0 172 124 282t333 110q162 0 291 -60v-239q-119 84 -279 84 q-80 0 -131 -43.5t-51 -102.5zM442 -133l252 6q12 -31 13 -72q0 -117 -144 -256l-176 64q39 45 56 82t17 89t-18 87z" glyph-name="glyph565" horiz-adv-x="1062"/><glyph d="M434 1046q0 -64 46 -109t136 -103t131 -89.5t124 -113t83 -259.5q0 -177 -139 -289t-351 -112t-372 84q6 27 64 242q121 -106 286 -107q96 0 155.5 43t59.5 114t-51 123t-136 104t-125 80t-120 106.5t-80 251.5q0 172 125.5 281.5t305.5 109.5t317 -62v-239 q-115 84 -264 84q-92 0 -143.5 -38t-51.5 -102zM702 -199q0 -117 -143 -256l-176 64q39 45 56 82t17 89t-18 87l252 6q12 -31 12 -72z" glyph-name="glyph566" horiz-adv-x="1062"/><glyph d="M485 -220q0 50 -16 91q139 29 268 47q14 -37 15 -92q0 -119 -152 -293l-172 74q57 123 57 173zM393 1376h467q264 0 340 2q-6 -117 -12 -239q-141 6 -332 6h-94q-2 -98 -2 -350v-439q0 -252 8 -356h-293q6 143 6 356v430q0 258 -4 359h-96q-190 0 -332 -6v239 q96 -2 344 -2z" glyph-name="glyph567" horiz-adv-x="1245"/><glyph d="M1933 1376q-380 -1026 -518 -1380h-172q-146 409 -289 825q-213 -621 -286 -825h-170q-472 1251 -523 1380h283q45 -123 159.5 -454.5t184.5 -509.5l326 964h80q57 -158 169.5 -477t170.5 -477q68 182 180 529t139 425h266z" glyph-name="glyph568" horiz-adv-x="1910"/><glyph d="M956 584l-286 -592h-74q-488 1083 -621 1384h285q70 -158 208 -471t208 -471l162 389q-86 184 -263 553h252q72 -167 127 -303q86 201 129 303h258l-268 -557q99 -231 162 -385l418 942h280q-12 -29 -299.5 -668.5t-322.5 -715.5h-72q-188 393 -283 592z" glyph-name="glyph569" horiz-adv-x="1892"/><glyph d="M367 404q0 -82 56 -137.5t146 -55.5t147.5 55.5t57.5 137.5t-65.5 138t-165.5 76q-76 -18 -126 -75t-50 -139zM395 993q0 -72 56.5 -122t138.5 -62q63 16 107 67.5t44 119.5t-48 117.5t-125 49.5t-125 -49t-48 -121zM145 1010q0 160 123 263t305 103t300 -103.5 t118 -248.5q0 -180 -194 -303q111 -49 174 -138t63 -202q0 -174 -134 -284.5t-332 -110.5t-332 107.5t-134 277.5q0 111 63.5 203t176.5 141q-197 102 -197 295z" glyph-name="glyph570" horiz-adv-x="0"/><glyph d="M131 -487q-90 0 -219 30l37 197q55 -29 119 -29q172 1 172 187l-17 864h-166v211h166v94q0 201 105.5 304.5t281.5 103.5q86 0 205 -31q-6 -35 -19.5 -104.5t-19.5 -104.5q-51 29 -131 29t-120 -58.5t-40 -128.5v-104h244q-27 -127 -41 -211h-203l17 -748 q0 -254 -82 -377.5t-289 -123.5z" glyph-name="glyph571" horiz-adv-x="757"/><glyph d="M455 -225q-174 0 -322 59v248q115 -74 249 -74t210 58.5t76 154.5t-76 156.5t-212 60.5t-206 -22q2 27 26 258t40 483q102 -4 176 -4h301q23 0 188 6v-239q-111 4 -182 4h-272q-4 -33 -14.5 -145.5t-14.5 -145.5q45 10 98 10q199 0 320 -115.5t121 -305.5t-145.5 -318.5 t-360.5 -128.5z" glyph-name="glyph572" horiz-adv-x="0"/><glyph d="M850 1186v-819q162 0 221 4v-199q-49 2 -221 2v-194q0 -82 8 -162h-270q6 53 6 159v197h-553v125l713 887h96zM594 367q0 264 2 395q-57 -76 -162.5 -216t-134.5 -179h295z" glyph-name="glyph573" horiz-adv-x="0"/><glyph d="M410 971v-764q0 -139 6 -207h-283q8 68 8 207v610h-100l65 154h304zM127 1258q0 62 43 105.5t105 43.5t106.5 -43.5t44.5 -105.5t-44 -105t-106 -43t-105.5 43t-43.5 105z" glyph-name="glyph574" horiz-adv-x="546"/><glyph d="M418 750v-666q0 -268 -82 -405.5t-281 -137.5h-182l29 219h88q160 0 160 260v797h-99q12 30 64 154h309q-6 -74 -6 -221zM133 1258q0 62 43.5 105.5t105.5 43.5t105 -43.5t43 -105.5t-43 -105t-105 -43t-105.5 43t-43.5 105z" glyph-name="glyph575" horiz-adv-x="563"/><glyph d="M487 305q-182 0 -299.5 131t-117.5 321t142 317.5t345 127.5t344 -136t141 -331q0 -125 -63 -262t-255 -379t-212 -278h-299q70 64 153 168t160.5 203.5t116.5 148.5v2l-2 2q-66 -35 -154 -35zM776 750q0 94 -63.5 160.5t-159.5 66.5t-157.5 -65.5t-61.5 -157.5 t64.5 -160t157.5 -68t156.5 65t63.5 159z" glyph-name="glyph576" horiz-adv-x="0"/><glyph d="M758 1120v-909q0 -164 4 -211h-277q4 84 4 213v852q-164 -66 -270 -115q-33 190 -39 217q254 100 453 199h127q-2 -56 -2 -246z" glyph-name="glyph577" horiz-adv-x="0"/><glyph d="M281 936q-109 0 -177 -6q-4 166 -10 248q51 -4 209 -4h533q47 0 114.5 1t87.5 1q-61 -127 -90 -193l-430 -971q-10 -23 -43 -97.5t-43 -98.5h-291q23 35 138 264t389 856h-387z" glyph-name="glyph578" horiz-adv-x="0"/><glyph d="M629 879q182 0 300 -131.5t118 -319.5t-140.5 -317t-344.5 -129t-346 136t-142 331q0 143 61 263t253 365.5t218 292.5h297q-71 -70 -153 -172t-160 -201.5t-117 -148.5l2 -2v-2q61 35 154 35zM340 434q0 -94 63.5 -160.5t158.5 -66.5t157.5 66.5t62.5 156.5t-65.5 158.5 t-158.5 68.5t-155.5 -64.5t-62.5 -158.5z" glyph-name="glyph579" horiz-adv-x="0"/><glyph d="M195 0v762h-144v209h144v229l266 37v-266h266l-35 -209h-231v-762h-266z" glyph-name="glyph580" horiz-adv-x="800"/><glyph d="M436 -467l-172 74q58 123 58 173t-17 91q139 29 268 47q14 -37 15 -92q0 -119 -152 -293zM461 1049v-76h266q-12 -82 -35 -211h-231v-363q0 -193 137 -192q45 0 94 26q20 -111 39 -196q-87 -53 -231 -53t-224.5 100t-80.5 295v383h-144v211h144v203l270 61 q-4 -111 -4 -188z" glyph-name="glyph581" horiz-adv-x="800"/><glyph d="M500 1169q186 0 300.5 -95t114.5 -259q0 -223 -235 -305q129 -39 201.5 -128t72.5 -208q0 -182 -129 -289.5t-327 -107.5t-328 51v240q106 -66 258 -66q104 0 165.5 62.5t61.5 146.5t-61.5 131t-157.5 47q-47 0 -98 -6v217q28 -4 98 -4t137.5 51t67.5 126t-54.5 123 t-142.5 48q-145 0 -266 -76v238q136 63 322 63z" glyph-name="glyph582" horiz-adv-x="0"/><glyph d="M137 0v152q238 209 408 446q70 100 101.5 163.5t31.5 152.5t-65.5 151.5t-172.5 62.5q-184 0 -284 -106v276q129 78 346 78t339 -116.5t122 -314.5t-183 -429q-102 -125 -256 -283h238q135 0 250 11v-244h-875z" glyph-name="glyph583" horiz-adv-x="0"/><glyph d="M401 584q0 -215 33 -299t141 -84q63 0 110.5 44t64.5 111v432q0 131 -5 185h281q-6 -76 -6 -180v-582q0 -127 20 -211h-237q-4 23 -14.5 68t-14.5 65q-88 -147 -289 -147q-156 0 -255 103.5t-99 311.5v418h-96l63 154h308q-4 -135 -5 -205v-184z" glyph-name="glyph584" horiz-adv-x="1093"/><glyph d="M569 350l84 203q-31 70 -91 209t-91 209h182q14 -35 43 -106.5t43 -106.5l84 213h178l-180 -408q50 -110 90 -215q283 614 287 623h281q-35 -61 -494 -991h-82q-33 72 -166 382l-170 -382h-80q-53 106 -218 456t-265 535h283l47 -103q122 -269 235 -518z" glyph-name="glyph585" horiz-adv-x="1497"/><glyph d="M465 -446h-262q59 109 231 493q-233 522 -426 924h316q33 -92 96 -254l147 -363q92 240 224 617h296q-25 -47 -199 -451t-423 -966z" glyph-name="glyph586" horiz-adv-x="1097"/><glyph d="M1075 680q0 -299 -129.5 -497.5t-365.5 -198.5t-363 199.5t-127 499.5t129 497.5t363 197.5q160 0 326.5 -144t166.5 -554zM371 679q0 -228 54 -352t156.5 -124t158 125t55.5 351t-55.5 352t-158 126t-156.5 -125t-54 -353z" glyph-name="glyph587" horiz-adv-x="0"/><glyph d="M414 307l-123 -307h-279q80 158 172 367l371 847l-92 168h274q41 -100 239 -534t244 -542t156 -306h-319q-8 23 -123 307h-520zM848 512l-178 451l-174 -451h352z" glyph-name="glyph588"/></font>
</defs>
</svg>
